Статистика раздачи
Размер:  1,46 GB   |    Зарегистрирован:  3 месяца 7 дней   |    Скачан:  0 раз

Полного источника не было: Никогда

 
   
 
 

lopster ®

Пол:
Не указан
Стаж:
3 месяца 7 дней
Сообщений:
612

Любовь с ограничениями- Год выпуска: 2017
Выпущено: Россия / Art Pictures Studio
Жанр: комедия, мелодрама
Продолжительность: 01:42:38-Режиссёр:
Дмитрий Тюрин-В ролях:
Павел Прилучный, Анна Старшенбаум, Илья Глинников, Алексей Чадов, Алексей Воробьев, Кирилл Плетнёв, Сергей Кутергин, Тимур Боканча, Ксения Иванова, Павел Шевандо-Описание:
Однажды самый обычный парень Миша узнает об указе Президента России, по которому в крупных компаниях должно работать два процента людей с ограниченными возможностями. И тут в его «светлую» голову приходит идея, как воплотить свою давнюю мечту о богатой и беззаботной жизни. Не долго думая, Миша получает фиктивные медицинские документы, садится в коляску и едет на собеседование — и не куда-нибудь, а в крупную корпорацию «Нашгаз». По счастливой случайности там как раз не хватало одного человека до той самой квоты. Жизнь удалась! Престижная работа, большая зарплата, крутая машина и только одно ограничение: Миша постоянно должен находиться в инвалидном кресле…-Релиз групп | | КиноПоиск | Сэмпл |-Качество: BDRip [LSO_HDCLUB]
Формат: AVI
Видео: 720x304 (2.37:1), 24.000 fps, XviD build 67 ~1574 kbps avg, 0.30 bit/pixel
Аудио: 48 kHz, AC3 Dolby Digital, 3/2 (L,C,R,l,r) + LFE ch, ~448 kbps avg-

Скриншоты

-

MediaInfo

Код:Общее
Полное имя : D:\Lubov`_s_ogranicheniyami_2017_BDRip_by_Dalemake.avi
Формат : AVI
Формат/Информация : Audio Video Interleave
Размер файла : 1,46 Гбайт
Продолжительность : 1 ч. 42 м.
Общий поток : 2032 Кбит/сек
Программа кодирования : VirtualDubMod 1.5.10.3 | www.virtualdub-fr.org || (build 2550/release)
Библиотека кодирования : VirtualDubMod build 2550/release
Видео
Идентификатор : 0
Формат : MPEG-4 Visual
Профиль формата : Advanced Simple@L5
Параметр BVOP формата : 1
Параметр QPel формата : Нет
Параметр GMC формата : Без точки перехода
Параметр матрицы формата : Выборочная
Идентификатор кодека : XVID
Идентификатор кодека/Подсказка : XviD
Продолжительность : 1 ч. 42 м.
Битрейт : 1575 Кбит/сек
Ширина : 720 пикселей
Высота : 304 пикселя
Соотношение сторон : 2,35:1
Частота кадров : 24,000 кадра/сек
Цветовое пространство : YUV
Субдискретизация насыщенности : 4:2:0
Битовая глубина : 8 бит
Тип развёртки : Прогрессивная
Метод сжатия : С потерями
Бит/(Пиксели*Кадры) : 0.300
Размер потока : 1,13 Гбайт (77%)
Библиотека кодирования : XviD 67
Аудио
Идентификатор : 1
Формат : AC-3
Формат/Информация : Audio Coding 3
Расширение режима : CM (complete main)
Параметр Endianness формата : Big
Идентификатор кодека : 2000
Продолжительность : 1 ч. 42 м.
Вид битрейта : Постоянный
Битрейт : 448 Кбит/сек
Каналы : 6 каналов
Расположение каналов : Front: L C R, Side: L R, LFE
Частота : 48,0 КГц
Битовая глубина : 16 бит
Метод сжатия : С потерями
Размер потока : 329 Мбайт (22%)
Выравнивание : Разделение по промежуткам
Продолжительность промежутка : 42 мс. (1,00 видеокадр)
Время предзагрузки промежутка : 500 мс.
-
[cybertorrent.ru].t326.torrent 
Торрент: Зарегистрирован [ 2018-02-15 15:48 ] · B7A62535E95D614C1AEE047B883802A7CF60388F

Скачать .torrent

Скачать

15 KB

Статус: проверено
Скачан: 0 раз
Размер: 1,46 GB
Профиль [ЛС]
Показать сообщения:    

Текущее время: 23-Май 07:17

Часовой пояс: UTC ± 0



Вы не можете начинать темы
Вы не можете отвечать на сообщения
Вы не можете редактировать свои сообщения
Вы не можете удалять свои сообщения
Вы не можете голосовать в опросах
Вы не можете прикреплять файлы к сообщениям
Вы можете скачивать файлы