Статистика раздачи
Размер:  747 MB   |    Зарегистрирован:  3 месяца 8 дней   |    Скачан:  0 раз

Полного источника не было: Никогда

 
   
 
 

lopster ®

Пол:
Не указан
Стаж:
3 месяца 8 дней
Сообщений:
612

Любовь с ограничениями
Жанр: комедия, мелодрама
Год выпуска: 2016
Продолжительность: 01:42:38
Режиссёр: Дмитрий Тюрин
В ролях: Павел Прилучный, Алексей Чадов, Анна Старшенбаум, Алексей Воробьёв, Илья Глинников, Кирилл Плетнёв, Сергей Кутергин, Наталья Бардо, Тимур Боканча
Описание: Главный герой фильма – молодой человек по имени Миша. Однажды он узнает об указе президента, по которому в любой крупной компании должно работать не менее двух процентов людей с ограниченными возможностями. Купив инвалидную коляску, Мише удается устроиться на престижную работу с большой зарплатой. Однако теперь у него есть одна проблема – он ни в коем случае не должен «спалиться». Чтобы случайно не выдать себя он записывается в клуб людей с ограниченными возможностями. Благодаря своей жизнерадостности он быстро становится там всеобщим любимчиком и даже влюбляется в милую девушку Марину. Однако чем дольше главный герой притворяется инвалидом, тем запутанней становится его ситуация....
Рейтинг фильма : -- IMDB / 6,0
Сэмпл: https://yadi.sk/i/V2JrgV6o3KBpdw
Качество видео: BDRip (Исходник Любовь с ограничениями (2017) Blu-ray [H.264/1080p] / NNMClub)
Формат видео: AVI
Видео: XviD 73, 656x272, (2,40:1), 24,000 fps, 813 Кбит/с, 8 бит, 0.19 bit/pixel
Аудио: Русский (АС3, 2 ch (Front: L R), 48,0 KHz, 192 Kbps)

MediaInfo

Общее
Полное имя : F:\Видеофильмы\В и д е о\Любовь с ограничениями (комедия, мелодрама 2016 год).avi
Формат : AVI
Формат/Информация : Audio Video Interleave
Размер файла : 747 Мбайт
Продолжительность : 1 ч. 42 м.
Общий поток : 1017 Кбит/сек
Программа кодирования : VirtualDubMod 1.5.10.3 | www.virtualdub-fr.org || (build 2550/release)
Библиотека кодирования : VirtualDubMod build 2550/release
Видео
Идентификатор : 0
Формат : MPEG-4 Visual
Профиль формата : Advanced Simple@L5
Параметр BVOP формата : 2
Параметр QPel формата : Нет
Параметр GMC формата : Без точки перехода
Параметр матрицы формата : Выборочная
Идентификатор кодека : XVID
Идентификатор кодека/Подсказка : XviD
Продолжительность : 1 ч. 42 м.
Битрейт : 816 Кбит/сек
Ширина : 656 пикселей
Высота : 272 пикселя
Соотношение сторон : 2,40:1
Частота кадров : 24,000 кадра/сек
Цветовое пространство : YUV
Субдискретизация насыщенности : 4:2:0
Битовая глубина : 8 бит
Тип развёртки : Прогрессивная
Метод сжатия : С потерями
Бит/(Пиксели*Кадры) : 0.190
Размер потока : 599 Мбайт (80%)
Библиотека кодирования : XviD 73
Аудио
Идентификатор : 1
Формат : AC-3
Формат/Информация : Audio Coding 3
Расширение режима : CM (complete main)
Параметр Endianness формата : Big
Идентификатор кодека : 2000
Продолжительность : 1 ч. 42 м.
Вид битрейта : Постоянный
Битрейт : 192 Кбит/сек
Каналы : 2 канала
Расположение каналов : Front: L R
Частота : 48,0 КГц
Частота кадров : 31,250 кадров/сек (1536 spf)
Метод сжатия : С потерями
Размер потока : 141 Мбайт (19%)
Выравнивание : Разделение по промежуткам
Продолжительность промежутка : 42 мс. (1,00 видеокадр)
Время предзагрузки промежутка : 500 мс.

Скриншот c названием фильма

Скриншоты

[cybertorrent.ru].t327.torrent 
Торрент: Зарегистрирован [ 2018-02-15 15:48 ] · 68E502A04274CE764413CF1BE0BD1392FB3FCBA3

Скачать .torrent

Скачать

15 KB

Статус: проверено
Скачан: 0 раз
Размер: 747 MB
Профиль [ЛС]
Показать сообщения:    

Текущее время: 23-Май 16:44

Часовой пояс: UTC ± 0



Вы не можете начинать темы
Вы не можете отвечать на сообщения
Вы не можете редактировать свои сообщения
Вы не можете удалять свои сообщения
Вы не можете голосовать в опросах
Вы не можете прикреплять файлы к сообщениям
Вы можете скачивать файлы