Статистика раздачи
Размер:  1 GB   |    Зарегистрирован:  3 месяца 7 дней   |    Скачан:  0 раз

Полного источника не было: Никогда

 
   
 
 

lopster ®

Пол:
Не указан
Стаж:
3 месяца 7 дней
Сообщений:
612

Прощальные гастроли
Страна: Россия, Беларусь
Жанр: мелодрама, приключения
Год выпуска: 1992
Продолжительность: 01:07:42
Режиссёр: Виталий Дудин
В ролях: Людмила Гурченко, Нина Усатова, Ольга Остроумова, Светлана Рябова, Ольга Левитина, Виталий Дудин
Описание: В одном купе на гастроли в Москву едут четыре актрисы провинциального театра — Гаранина, Щипалина, Рудакова и Донцова. Всех их связывает любовь к одному человеку — режиссеру и руководителю этого театра. Правда у кого-то все в прошлом, а у кого-то в настоящем.
А самая старшая — прима театра — знает его главную тайну: почему молодой, подающий большие надежды режиссер много лет назад вынужден был покинуть столицу и уехать в провинцию. И вот судьба дает им шанс получить признание, начать новую жизнь: гастроли в Москве.-Доп. информация: запись с IPTV в Беларуси.
Производство: Исповедь, ТО Экран
Автор сценария: Юлиу Эдлис
Оператор: Сергей Зубиков
Художник: Владимир Дементьев
Сэмпл: http://sendfile.su/1343875
Качество видео: DVB
Формат видео: MKV
Видео: AVC (H264), 720x576@785x576 (4:3), анаморф, 25 fps, 1886 kbps
Аудио: MP2, 192 kbps, 2 channels, 48 kHz

MediaInfo

General
Unique ID : 263604178414167109225359448151400373465 (0xC650516CDC885841CDA448C21367DCD9)
Complete name : C:\Hamlet.dvbts\Прощальные гастроли.mkv
Format : Matroska
Format version : Version 2
File size : 1.00 GiB
Duration : 1 h 7 min
Overall bit rate : 2 120 kb/s
Writing application : Lavf54.63.104
Writing library : Lavf54.63.104
Video
ID : 1
Format : AVC
Format/Info : Advanced Video Codec
Format profile : High@L3
Format settings, CABAC : Yes
Format settings, ReFrames : 4 frames
Codec ID : V_MPEG4/ISO/AVC
Duration : 1 h 7 min
Bit rate : 1 886 kb/s
Width : 720 pixels
Height : 576 pixels
Display aspect ratio : 4:3
Original display aspect ratio : 4:3
Frame rate mode : Constant
Frame rate : 25.000 FPS
Standard : Component
Color space : YUV
Chroma subsampling : 4:2:0
Bit depth : 8 bits
Scan type : Interlaced
Scan type, store method : Separated fields
Scan order : Top Field First
Bits/(Pixel*Frame) : 0.182
Stream size : 914 MiB (89%)
Default : No
Forced : No
Color range : Limited
Color primaries : BT.601 PAL
Transfer characteristics : BT.470 System B, BT.470 System G
Matrix coefficients : BT.601
Audio
ID : 2
Format : MPEG Audio
Format version : Version 1
Format profile : Layer 2
Codec ID : A_MPEG/L2
Codec ID/Hint : MP2
Duration : 1 h 7 min
Bit rate mode : Constant
Bit rate : 192 kb/s
Channel(s) : 2 channels
Sampling rate : 48.0 kHz
Compression mode : Lossy
Stream size : 93.0 MiB (9%)
Language : Russian
Default : Yes
Forced : No
[cybertorrent.ru].t329.torrent 
Торрент: Зарегистрирован [ 2018-02-15 15:48 ] · 00386723F66E25D33A4F2378418FE1EFAD738D36

Скачать .torrent

Скачать

10 KB

Статус: проверено
Скачан: 0 раз
Размер: 1 GB
Профиль [ЛС]
Показать сообщения:    

Текущее время: 22-Май 23:03

Часовой пояс: UTC ± 0



Вы не можете начинать темы
Вы не можете отвечать на сообщения
Вы не можете редактировать свои сообщения
Вы не можете удалять свои сообщения
Вы не можете голосовать в опросах
Вы не можете прикреплять файлы к сообщениям
Вы можете скачивать файлы