Статистика раздачи
Размер:  1,46 GB   |    Зарегистрирован:  3 месяца 10 дней   |    Скачан:  0 раз

Полного источника не было: Никогда

 
   
 
 

lopster ®

Пол:
Не указан
Стаж:
3 месяца 11 дней
Сообщений:
612

Лабиринты любви
Жанр: Мелодрама
Год выпуска: 2016
Продолжительность: 01:26:05
Режиссёр: Владимир Штерянов
В ролях: Сергей Бадюк, Яна Маринова, Александра Маринова, Ралика Паскалева, Егор Тимцуник, Антони Пенев, Боряна Братоева, Григорий Калинин, Мария Насырова, Ольга Михайлова, Родин Кафалиев, Елена Субботина, Андрей Субботин, Тони Минасян, Каролина Братанова, Веста Буркот, Дарья Спирина, Александр Бобров
Описание: В современном мире нас связывают тысячи компьютеров, миллионы километров проводов, сотни Wi-Fi-устройств и сотовых башен. Мы можем поздравить кого угодно с днем рождения по телефону, отправить фотографию любимого по электронной почте, мгновенно увидеть друг друга в скайпе и пообщаться с сотнями друзей в социальной сети. Кажется, что разнообразные средства связи могут соединить нас моментально - однако они не дают нам возможности посмотреть друг другу в глаза. Пять самостоятельных новелл рассказывают нам о взаимоотношениях людей в сложном мире электронных коммуникаций.
Доп. информация:
Автор релиза -
Источник аудио и видео для рипа - HDTV 1080i TS - моя запись с канала Наш Кинороман HD



Сэмпл: https://yadi.sk/i/bIE8183g3KbCP7
Рекламы нет!
Качество видео: HDTVRip
Формат видео: AVI
Видео: XviD, 720x320 (2,25:1), 25.000 fps, 1964 kbps, 0.341 bit/pixel
Аудио: Русский AC3, 48000 Гц, 6ch, 448 kbps

MediaInfo

Общее
Полное имя : D:\Лабиринты.любви.2015.HDTVRip-ylnian.avi
Формат : AVI
Формат/Информация : Audio Video Interleave
Размер файла : 1,46 Гбайт
Продолжительность : 1 ч. 26 м.
Общий поток : 2422 Кбит/сек
Программа кодирования : VirtualDubMod 1.5.10.2 (build 2540/release)
Библиотека кодирования : VirtualDubMod build 2540/release
Видео
Идентификатор : 0
Формат : MPEG-4 Visual
Профиль формата : Advanced Simple@L5
Параметр BVOP формата : 1
Параметр QPel формата : Нет
Параметр GMC формата : Без точки перехода
Параметр матрицы формата : Default (MPEG)
Идентификатор кодека : XVID
Идентификатор кодека/Подсказка : XviD
Продолжительность : 1 ч. 26 м.
Битрейт : 1964 Кбит/сек
Ширина : 720 пикселей
Высота : 320 пикселей
Соотношение сторон : 2,25:1
Частота кадров : 25,000 кадров/сек
Цветовое пространство : YUV
Субдискретизация насыщенности : 4:2:0
Битовая глубина : 8 бит
Тип развёртки : Прогрессивная
Метод сжатия : С потерями
Бит/(Пиксели*Кадры) : 0.341
Размер потока : 1,18 Гбайт (81%)
Библиотека кодирования : XviD 67
Аудио
Идентификатор : 1
Формат : AC-3
Формат/Информация : Audio Coding 3
Параметр Endianness формата : Big
Идентификатор кодека : 2000
Продолжительность : 1 ч. 26 м.
Вид битрейта : Постоянный
Битрейт : 448 Кбит/сек
Каналы : 6 каналов
Расположение каналов : Front: L C R, Side: L R, LFE
Частота : 48,0 КГц
Частота кадров : 31,250 кадров/сек (1536 spf)
Битовая глубина : 16 бит
Метод сжатия : С потерями
Размер потока : 276 Мбайт (18%)
Выравнивание : Разделение по промежуткам
Продолжительность промежутка : 40 мс. (1,00 видеокадр)
Время предзагрузки промежутка : 500 мс.
Заголовок : RUS
ServiceKind/String : Complete Main
[cybertorrent.ru].t330.torrent 
Торрент: Зарегистрирован [ 2018-02-15 15:48 ] · 45023C1C6890959BF8065A0153B85FB571ED8165

Скачать .torrent

Скачать

15 KB

Статус: проверено
Скачан: 0 раз
Размер: 1,46 GB
Профиль [ЛС]
Показать сообщения:    

Текущее время: 26-Май 15:40

Часовой пояс: UTC ± 0



Вы не можете начинать темы
Вы не можете отвечать на сообщения
Вы не можете редактировать свои сообщения
Вы не можете удалять свои сообщения
Вы не можете голосовать в опросах
Вы не можете прикреплять файлы к сообщениям
Вы можете скачивать файлы