Статистика раздачи
Размер:  2,45 GB   |    Зарегистрирован:  3 месяца 11 дней   |    Скачан:  0 раз

Полного источника не было: Никогда

 
   
 
 

lopster ®

Пол:
Не указан
Стаж:
3 месяца 11 дней
Сообщений:
612

Александр Пушкин / А.П. (2 серии) Год выпуска: 2002.
Жанр: драма.
Продолжительность: 01:19:57 + 00:56:51 (02:16:48).
Режиссер: Александр Яцко.
В ролях:
Ольга Дроздова, Елена Валюшкина, Сергей Безруков, Александр Адабашьян, Александр Ильин, Вера Сотникова, Валерий Гаркалин, Анатолий Адоскин, Александр Леньков, Кирилл Пирогов, Александр Пашутин, Владимир Симонов, Евгений Воскресенский, Сергей Чонишвили, Гоша Куценко, Андрей Кочетков.
Описание:
В основе сценария - пьеса Михаила Афанасьевича Булгакова "Александр Пушкин", рассказывающая о последних месяцах жизни Александра Сергеевича Пушкина: с ноября 1836 года, когда он получил анонимные пасквили и вызвал Жоржа Геккерна-д'Антеса на дуэль, до состоявшейся январской дуэли 1837 года, на которую поэта вызвал барон Луи Геккерн, а участвовал за барона - всё тот же Жорж д'Антес.
Доп. информация:
Страна: Россия .
Производство: ВГТРК.
Оператор: Григорий Яблочников.
Композитор: Николай Парфенюк.
Художники: Владимир Святозаров, Анатолий Тур.

Релиз
Рип грейфер.

Качество: VHSRip
Формат: AVI

Видео

1-я серия: 688x528 (1.30:1), 25 fps, DivX Codec 6.8.5/6.9.1 ~2359 kbps avg, 0.26 bit/pixel
2-я серия: 688x528 (1.30:1), 25 fps, DivX Codec 6.8.5/6.9.1 ~2362 kbps avg, 0.26 bit/pixel
Аудио: 48 kHz, AC3 Dolby Digital, 2/0 (L,R) ch, ~192 kbps

Отчет Media Info

1-я серия:
General
Complete name : Alexandr.Pushkin.(2.serii).2002.DivX.VHSRip.by.GreifeR.fenixclub.avi\Alexandr.Pushkin.2002_1-ya.seriya.avi
Format : AVI
Format/Info : Audio Video Interleave
File size : 1.43 GiB
Duration : 1h 19mn
Overall bit rate : 2 561 Kbps
Video
ID : 0
Format : MPEG-4 Visual
Format settings, BVOP : 1
Format settings, QPel : No
Format settings, GMC : No warppoints
Format settings, Matrix : Default (H.263)
Codec ID : DX50
Codec ID/Hint : DivX 5
Duration : 1h 19mn
Bit rate : 2 360 Kbps
Width : 688 pixels
Height : 528 pixels
Display aspect ratio : 4:3
Frame rate : 25.000 fps
Color space : YUV
Chroma subsampling : 4:2:0
Bit depth : 8 bits
Scan type : Progressive
Compression mode : Lossy
Bits/(Pixel*Frame) : 0.260
Stream size : 1.32 GiB (92%)
Writing library : DivX 6.8.5 (UTC 2009-08-20)
Audio
ID : 1
Format : AC-3
Format/Info : Audio Coding 3
Mode extension : CM (complete main)
Format settings, Endianness : Big
Codec ID : 2000
Duration : 1h 19mn
Bit rate mode : Constant
Bit rate : 192 Kbps
Channel(s) : 2 channels
Channel positions : Front: L R
Sampling rate : 48.0 KHz
Frame rate : 31.250 fps (1536 spf)
Compression mode : Lossy
Stream size : 110 MiB (7%)
Alignment : Split accross interleaves
Interleave, duration : 40 ms (1.00 video frame)
Interleave, preload duratio : 500 ms.
2-я серия:
General
Complete name : Alexandr.Pushkin.(2.serii).2002.DivX.VHSRip.by.GreifeR.fenixclub.avi\Alexandr.Pushkin.2002_2-ya.seriya.avi
Format : AVI
Format/Info : Audio Video Interleave
File size : 1.02 GiB
Duration : 56mn 51s
Overall bit rate : 2 564 Kbps
Writing application : VirtualDubMod 1.5.10.2 (build 2540/release)
Writing library : VirtualDubMod build 2540/release
Video
ID : 0
Format : MPEG-4 Visual
Format settings, BVOP : 1
Format settings, QPel : No
Format settings, GMC : No warppoints
Format settings, Matrix : Default (H.263)
Codec ID : DX50
Codec ID/Hint : DivX 5
Duration : 56mn 51s
Bit rate : 2 363 Kbps
Width : 688 pixels
Height : 528 pixels
Display aspect ratio : 4:3
Frame rate : 25.000 fps
Color space : YUV
Chroma subsampling : 4:2:0
Bit depth : 8 bits
Scan type : Progressive
Compression mode : Lossy
Bits/(Pixel*Frame) : 0.260
Stream size : 961 MiB (92%)
Writing library : DivX 6.8.5 (UTC 2009-08-20)
Audio
ID : 1
Format : AC-3
Format/Info : Audio Coding 3
Mode extension : CM (complete main)
Format settings, Endianness : Big
Codec ID : 2000
Duration : 56mn 51s
Bit rate mode : Constant
Bit rate : 192 Kbps
Channel(s) : 2 channels
Channel positions : Front: L R
Sampling rate : 48.0 KHz
Frame rate : 31.250 fps (1536 spf)
Compression mode : Lossy
Delay relative to video : 12ms
Stream size : 78.1 MiB (7%)
Alignment : Split accross interleaves
Interleave, duration : 40 ms (1.00 video frame)
Interleave, preload duratio : 500 ms.

Скриншоты

[cybertorrent.ru].t331.torrent 
Торрент: Зарегистрирован [ 2018-02-15 15:48 ] · 9528202CE047F4AA5CE6C34DCC88003D90C830FF

Скачать .torrent

Скачать

13 KB

Статус: проверено
Скачан: 0 раз
Размер: 2,45 GB
Профиль [ЛС]
Показать сообщения:    

Текущее время: 27-Май 01:41

Часовой пояс: UTC ± 0



Вы не можете начинать темы
Вы не можете отвечать на сообщения
Вы не можете редактировать свои сообщения
Вы не можете удалять свои сообщения
Вы не можете голосовать в опросах
Вы не можете прикреплять файлы к сообщениям
Вы можете скачивать файлы