Статистика раздачи
Размер:  744 MB   |    Зарегистрирован:  3 месяца 12 дней   |    Скачан:  0 раз

Полного источника не было: Никогда

Личеров:  5  [  0 KB/s  ]  
 
   
 
 

lopster ®

Пол:
Не указан
Стаж:
3 месяца 12 дней
Сообщений:
612

ДМБ
Жанр: комедия
Год выпуска: 2000
Продолжительность: 01:23:37
-
Режиссёр: Роман Качанов
В ролях: Петр Коршунков, Станислав Дужников, Михаил Петровский, Сергей Арцибашев, Александр Белявский, Юозас Будрайтис, Виктор Павлов, Иван Охлобыстин, Сергей Габриэлян, Роман Качанов, Дмитрий Неживой
-
Описание: Студент Штык соблазнил профессорскую жену; рабочий парень Бомба спалил до тла родной завод; завсегдатай казино Пуля скрывается от кредиторов — всем одна дорога — на призывной пункт. Там их учат, что в человеке должно быть все прекрасно — погоны, кокарда, исподнее — иначе ты не человек, а млекопитающее.Для настоящего мужчины нет лучше места, чем родная армия. А рано или поздно, «дембельский поезд» — «чух — чух — чух» — доставит тебя домой, и ты бесповоротно поймешь, что до армии был ничем, а теперь, по крайней мере, стал всем.
-

-
Сэмпл: http://sendfile.su/1345887
-
Качество видео: DVDRip-AVC (alex77)
Формат видео: MKV
Видео: 656x416 (1.577:1), 25 fps, AVC, ~1 050 Kbps, 0.154 bits/pixel
Аудио: 48 kHz, AC3 Dolby Digital, 2/0 (L,R) ch, ~192 kbps (Меран)

MediaInfo

x264 [info]: frame I:1101 Avg QP:19.85 size: 38537
x264 [info]: frame P:20260 Avg QP:22.90 size: 12692
x264 [info]: frame B:104077 Avg QP:25.86 size: 3448-General
Unique ID : 172916085988988692317123163223869793137 (0x82166D41EDC3AC39A06AF518BB7AA371)
Complete name : C:\Users\ALEX\Desktop\Фильмы\ДМБ.2000.DVDRip-AVC.x264.AC3.mkv
Format : Matroska
Format version : Version 4 / Version 2
File size : 744 MiB
Duration : 1 h 23 min
Overall bit rate : 1 244 kb/s
Encoded date : UTC 2017-07-02 15:22:15
Writing application : mkvmerge v8.5.2 ('Crosses') 64bit
Writing library : libebml v1.3.3 + libmatroska v1.4.4
Video
ID : 1
Format : AVC
Format/Info : Advanced Video Codec
Format profile : High@L4.1
Format settings, CABAC : Yes
Format settings, ReFrames : 10 frames
Codec ID : V_MPEG4/ISO/AVC
Duration : 1 h 23 min
Bit rate : 1 050 kb/s
Width : 656 pixels
Height : 416 pixels
Display aspect ratio : 16:10
Frame rate mode : Constant
Frame rate : 25.000 FPS
Color space : YUV
Chroma subsampling : 4:2:0
Bit depth : 8 bits
Scan type : Progressive
Bits/(Pixel*Frame) : 0.154
Stream size : 628 MiB (84%)
Title : ДМБ
Writing library : x264 core 148 r2744 b97ae06
Encoding settings : cabac=1 / ref=10 / deblock=1:-2:-1 / analyse=0x3:0x113 / me=umh / subme=11 / psy=1 / psy_rd=1.00:0.05 / mixed_ref=1 / me_range=32 / chroma_me=1 / trellis=2 / 8x8dct=1 / cqm=0 / deadzone=21,11 / fast_pskip=0 / chroma_qp_offset=-3 / threads=6 / lookahead_threads=1 / sliced_threads=0 / nr=0 / decimate=1 / interlaced=0 / bluray_compat=0 / constrained_intra=0 / bframes=8 / b_pyramid=2 / b_adapt=1 / b_bias=0 / direct=3 / weightb=1 / open_gop=0 / weightp=2 / keyint=250 / keyint_min=25 / scenecut=40 / intra_refresh=0 / rc=2pass / mbtree=0 / bitrate=1050 / ratetol=1.0 / qcomp=0.60 / qpmin=0 / qpmax=69 / qpstep=4 / cplxblur=20.0 / qblur=0.5 / ip_ratio=1.40 / pb_ratio=1.30 / aq=1:1.00
Language : Russian
Default : No
Forced : No
Audio
ID : 2
Format : AC-3
Format/Info : Audio Coding 3
Format settings, Endianness : Big
Codec ID : A_AC3
Duration : 1 h 23 min
Bit rate mode : Constant
Bit rate : 192 kb/s
Channel(s) : 2 channels
Channel positions : Front: L R
Sampling rate : 48.0 kHz
Frame rate : 31.250 FPS (1536 spf)
Bit depth : 16 bits
Compression mode : Lossy
Stream size : 115 MiB (15%)
Title : Оригинал (без пропусков)
Language : Russian
Service kind : Complete Main
Default : No
Forced : No

Скриншоты

[cybertorrent.ru].t332.torrent 
Торрент: Зарегистрирован [ 2018-02-15 15:48 ] · 6DC164D865E7B23492EE557B5A00F2D9BB3C43DE

Скачать .torrent

Скачать

15 KB

Статус: проверено
Скачан: 0 раз
Размер: 744 MB
Профиль [ЛС]
Показать сообщения:    

Текущее время: 28-Май 08:09

Часовой пояс: UTC ± 0



Вы не можете начинать темы
Вы не можете отвечать на сообщения
Вы не можете редактировать свои сообщения
Вы не можете удалять свои сообщения
Вы не можете голосовать в опросах
Вы не можете прикреплять файлы к сообщениям
Вы можете скачивать файлы