Статистика раздачи
Размер:  744 MB   |    Зарегистрирован:  3 месяца 6 дней   |    Скачан:  0 раз

Полного источника не было: Никогда

 
   
 
 

lopster ®

Пол:
Не указан
Стаж:
3 месяца 6 дней
Сообщений:
612

Пиковая дама: Черный обряд
Жанр: ужасы
Год выпуска: 2015
Продолжительность: 01:32:56
Режиссёр: Святослав Подгаевский
В ролях: Алина Бабак, Игорь Хрипунов, Владимир Селезнев, Валерия Дмитриева, Сергей Походаев, Евгения Лоза, Валентин Садики, Мария Фомина, Максим Стоянов, Наталья Домерецкая
Описание: С древних времен считается, что любое зеркало может стать порталом в мир мертвых. Одним из старейших мистических ритуалов с зеркалом является обряд вызова Пиковой Дамы. Четверо подростков в шутку решают призвать ее, но даже не подозревают, на какие ужасы они обрекли себя и своих близких. Теперь мстительный призрак не остановится, пока не получит их души.
Семпл/Все раздачи фильма
Исходник -- Blu-ray disc http://cybertorrent.ru/viewtopic.php?t=5351435
Качество видео: BDRip
Формат видео: AVI
Видео: 640x272, 24 fps, XviD, 982 kbps, 0.235 bit/pixel
Аудио: 48 kHz, MP3, 2 ch, 128 kbps

МедиаИнфо

General
Complete name : E:\Queen.of.spades.2015.avi
Format : AVI
Format/Info : Audio Video Interleave
File size : 744 MiB
Duration : 1h 32mn
Overall bit rate : 1 120 Kbps
Writing application : VirtualDubMod 1.5.10.3 | www.virtualdub-fr.org || (build 2550/release)
Writing library : VirtualDubMod build 2550/release
Video
ID : 0
Format : MPEG-4 Visual
Format profile : Advanced Simple@L5
Format settings, BVOP : Yes
Format settings, QPel : No
Format settings, GMC : No warppoints
Format settings, Matrix : Default (MPEG)
Codec ID : XVID
Codec ID/Hint : XviD
Duration : 1h 32mn
Bit rate : 982 Kbps
Width : 640 pixels
Height : 272 pixels
Display aspect ratio : 2.35:1
Frame rate : 24.000 fps
Resolution : 8 bits
Colorimetry : 4:2:0
Scan type : Progressive
Bits/(Pixel*Frame) : 0.235
Stream size : 653 MiB (88%)
Writing library : XviD 73
Audio
ID : 1
Format : MPEG Audio
Format version : Version 1
Format profile : Layer 3
Mode : Joint stereo
Format_Settings_ModeExtension : MS Stereo
Codec ID : 55
Codec ID/Hint : MP3
Duration : 1h 32mn
Bit rate mode : Constant
Bit rate : 128 Kbps
Channel(s) : 2 channels
Sampling rate : 48.0 KHz
Stream size : 85.1 MiB (11%)
Alignment : Aligned on interleaves
Interleave, duration : 42 ms (1.00 video frame)
Interleave, preload duration : 504 ms

Скриншоты

[cybertorrent.ru].t335.torrent 
Торрент: Зарегистрирован [ 2018-02-15 15:48 ] · B0630053383B4987BE67AF1A9EB7D43214B6807C

Скачать .torrent

Скачать

15 KB

Статус: проверено
Скачан: 0 раз
Размер: 744 MB
Профиль [ЛС]
Показать сообщения:    

Текущее время: 21-Май 18:59

Часовой пояс: UTC ± 0



Вы не можете начинать темы
Вы не можете отвечать на сообщения
Вы не можете редактировать свои сообщения
Вы не можете удалять свои сообщения
Вы не можете голосовать в опросах
Вы не можете прикреплять файлы к сообщениям
Вы можете скачивать файлы