Статистика раздачи
Размер:  723 MB   |    Зарегистрирован:  3 месяца 8 дней   |    Скачан:  0 раз

Полного источника не было: Никогда

Личеров:  6  [  0 KB/s  ]  
 
   
 
 

lopster ®

Пол:
Не указан
Стаж:
3 месяца 8 дней
Сообщений:
612

Я любить тебя буду, можно?
Жанр: мелодрама
Год выпуска: 2017
Продолжительность: 0:54:30
Режиссёр: Мария Ефремова
В ролях: Анатолий Белый, Мария Ефремова, Андрей Чадов, Алёна Яковлева, Мария Берсенева, Михаил Полицеймако, Елена Захарова, Малена Маяковская, Дмитрий Малашенко, Сергей Канаев
Описание: Вадим и Катя давно живут вместе, но не смотря на внешнее благополучие их пары, в глубине души девушку не устраивает, что любимый не спешит официально оформить отношения. Все подруги давно пошли под венец, и на очередном девичнике Катя знакомится с журналистом Сергеем...
Персонажи фильма разговаривают стихами Эдуарда Асадова.
Семпл/Все раздачи фильма
Исходник -- WEB-DL 1080p http://cybertorrent.ru/viewtopic.php?t=5425273
Качество видео: WEB-DLRip
Формат видео: AVI
Видео: 704x384, 24 fps, XviD, 1654 kbps, 0.255 bit/pixel
Аудио: 48 kHz, AC3, 2 ch, 192 kbps

МедиаИнфо

General
Complete name : E:\I.Will.Love.You.One.Can.2017.avi
Format : AVI
Format/Info : Audio Video Interleave
File size : 723 MiB
Duration : 54mn 30s
Overall bit rate : 1 855 Kbps
Writing application : VirtualDubMod 1.5.10.3 | www.virtualdub-fr.org || (build 2550/release)
Writing library : VirtualDubMod build 2550/release
Video
ID : 0
Format : MPEG-4 Visual
Format profile : Advanced Simple@L5
Format settings, BVOP : Yes
Format settings, QPel : No
Format settings, GMC : No warppoints
Format settings, Matrix : Default (MPEG)
Codec ID : XVID
Codec ID/Hint : XviD
Duration : 54mn 30s
Bit rate : 1 654 Kbps
Width : 704 pixels
Height : 384 pixels
Display aspect ratio : 16:9
Frame rate : 24.000 fps
Resolution : 8 bits
Colorimetry : 4:2:0
Scan type : Progressive
Bits/(Pixel*Frame) : 0.255
Stream size : 645 MiB (89%)
Writing library : XviD 73
Audio
ID : 1
Format : AC-3
Format/Info : Audio Coding 3
Format_Settings_ModeExtension : CM (complete main)
Codec ID : 2000
Duration : 54mn 30s
Bit rate mode : Constant
Bit rate : 192 Kbps
Channel(s) : 2 channels
Channel positions : Front: L R
Sampling rate : 48.0 KHz
Stream size : 74.9 MiB (10%)
Alignment : Split accross interleaves
Interleave, duration : 42 ms (1.00 video frame)
Interleave, preload duration : 500 ms

Скриншоты

[cybertorrent.ru].t336.torrent 
Торрент: Зарегистрирован [ 2018-02-15 15:48 ] · 8DE3A5101B9616177B2DA86195E00C21A3814973

Скачать .torrent

Скачать

15 KB

Статус: проверено
Скачан: 0 раз
Размер: 723 MB
Профиль [ЛС]
Показать сообщения:    

Текущее время: 23-Май 16:50

Часовой пояс: UTC ± 0



Вы не можете начинать темы
Вы не можете отвечать на сообщения
Вы не можете редактировать свои сообщения
Вы не можете удалять свои сообщения
Вы не можете голосовать в опросах
Вы не можете прикреплять файлы к сообщениям
Вы можете скачивать файлы