Статистика раздачи
Размер:  1,09 GB   |    Зарегистрирован:  3 месяца 11 дней   |    Скачан:  0 раз

Полного источника не было: Никогда

Личеров:  6  [  0 KB/s  ]  
 
   
 
 

lopster ®

Пол:
Не указан
Стаж:
3 месяца 11 дней
Сообщений:
612

Потерянный рай Год выпуска: 2000.
Жанр: драма, экранизация.
Продолжительность: 01:16:51.
Режиссер: Александр Яцко.
В ролях:
Виктор Раков, Ирина Алфёрова, Андрей Соколов, Юлия Барынина, Анатолий Суханов, Валентин Букин, Дмитрий Витченко, Пётр Бенюк, Владимир Горпенко, Александр Кавалеров.
Описание:
Экранизация одноименного романа Виктора Веретенникова.
1981 год. Бывший руководитель города Артем Сапега уходит с геологической экспедицией в тайгу, где во время бури остается один, без огня и оружия, с глазу на глаз с дикой природой. Он проходит сложный путь от борьбы с окружающим миром до единения с ним.

Доп. информация:
Страна: Россия , Украина .
Производство: Злагода.
Авторы сценария: Виктор Веретенников, Валерий Рожко.
Оператор: Виталий Зимовец.
Композитор: Виктор Мужчиль.
Художники: Игорь Беляк, Георгий Усенко, Татьяна Филатова.

Релиз
Рип sharky.

Качество: WEB-DLRip
Формат: AVI
Видео: 704x528 (1.33:1), 25 fps, XviD build 47 ~1827 kbps avg, 0.20 bit/pixel
Аудио: 48 kHz, AC3 Dolby Digital, 2/0 (L,R) ch, ~192 kbps

Отчет Media Info

General
Complete name : Poteryannyj.raj.2000.XviD.WEB-DLRip.fenixclub.avi
Format : AVI
Format/Info : Audio Video Interleave
File size : 1.09 GiB
Duration : 1h 16mn
Overall bit rate : 2 029 Kbps
Writing application : VirtualDubMod 1.5.10.2 (build 2540/release)
Writing library : VirtualDubMod build 2540/release
Video
ID : 0
Format : MPEG-4 Visual
Format profile : Advanced Simple@L5
Format settings, BVOP : 1
Format settings, QPel : No
Format settings, GMC : No warppoints
Format settings, Matrix : Default (H.263)
Codec ID : XVID
Codec ID/Hint : XviD
Duration : 1h 16mn
Bit rate : 1 828 Kbps
Width : 704 pixels
Height : 528 pixels
Display aspect ratio : 4:3
Frame rate : 25.000 fps
Color space : YUV
Chroma subsampling : 4:2:0
Bit depth : 8 bits
Scan type : Progressive
Compression mode : Lossy
Bits/(Pixel*Frame) : 0.197
Stream size : 1 005 MiB (90%)
Writing library : XviD 1.2.0.dev47 (UTC 2006-11-01)
Audio
ID : 1
Format : AC-3
Format/Info : Audio Coding 3
Mode extension : CM (complete main)
Format settings, Endianness : Big
Codec ID : 2000
Duration : 1h 16mn
Bit rate mode : Constant
Bit rate : 192 Kbps
Channel(s) : 2 channels
Channel positions : Front: L R
Sampling rate : 48.0 KHz
Frame rate : 31.250 fps (1536 spf)
Compression mode : Lossy
Stream size : 106 MiB (9%)
Alignment : Split accross interleaves
Interleave, duration : 40 ms (1.00 video frame)
Interleave, preload duratio : 500 ms.

Скриншоты


[cybertorrent.ru].t337.torrent 
Торрент: Зарегистрирован [ 2018-02-15 15:48 ] · 5CE737F81E9B4E7E97B13263EA272058C723E3D3

Скачать .torrent

Скачать

11 KB

Статус: проверено
Скачан: 0 раз
Размер: 1,09 GB
Профиль [ЛС]
Показать сообщения:    

Текущее время: 27-Май 01:37

Часовой пояс: UTC ± 0



Вы не можете начинать темы
Вы не можете отвечать на сообщения
Вы не можете редактировать свои сообщения
Вы не можете удалять свои сообщения
Вы не можете голосовать в опросах
Вы не можете прикреплять файлы к сообщениям
Вы можете скачивать файлы