Статистика раздачи
Размер:  938 MB   |    Зарегистрирован:  3 месяца 11 дней   |    Скачан:  0 раз

Полного источника не было: Никогда

Личеров:  6  [  0 KB/s  ]  
 
   
 
 

lopster ®

Пол:
Не указан
Стаж:
3 месяца 11 дней
Сообщений:
612

Кешка и бизнес
Жанр: Комедия, короткометражный
Год выпуска: 1993
Продолжительность: 00:15:39
Режиссёр: Борис Берзнер
В ролях: Иннокентий Сичкарь, Артем Усов, Денис Мирский
Описание: Кешка и его друзья решили подзаработать денег. Но, ни посредничество при торговых сделках, ни мытье машин не принесли «бизнесменам» успеха.
Доп. информация: Ну вот наконец-то нашлась еще одна серия цикла). Ради такого дела я даже вернулся к созданию раздач после многолетнего перерыва...
Отдельная благодарность (в том числе от И.Сичкаря) AleXounDirector за поиск кассеты и её оцифровку.
Сэмпл: http://sendfile.su/1349819
Качество видео: VHSRip
Формат видео: MPG
Видео: MPEG Video, 720х576, 4:3, 25,000 кадров/сек, 7957 Кбит/сек
Аудио: русский, MPEG Audio, 44,1 КГц, 256 Кбит/сек, 2 канала

MediaInfo

Общее
Полное имя : H:\!Torrent\Кешка и бизнес.mpg
Формат : MPEG-PS
Размер файла : 938 Мбайт
Продолжительность : 15 м. 39 с.
Режим общего битрейта : Переменный
Общий поток : 8380 Кбит/сек
Библиотека кодирования : (dvd5: Jun 16 2014)
Видео
Идентификатор : 224 (0xE0)
Формат : MPEG Video
Версия формата : Version 2
Профиль формата : Main@Main
Параметр BVOP формата : Да
Параметр матрицы формата : По умолчанию
Параметр GOP формата : M=3, N=18
Структура изображения : Frame
Продолжительность : 15 м. 39 с.
Вид битрейта : Переменный
Битрейт : 7957 Кбит/сек
Максимальный битрейт : 8200 Кбит/сек
Ширина : 720 пикселей
Высота : 576 пикселей
Соотношение сторон : 4:3
Частота кадров : 25,000 кадров/сек
Стандарт вещания : PAL
Цветовое пространство : YUV
Субдискретизация насыщенности : 4:2:0
Битовая глубина : 8 бит
Тип развёртки : Чересстрочная
Порядок развёртки : Верхнее поле первое
Метод сжатия : С потерями
Бит/(Пиксели*Кадры) : 0.767
Временной код первого кадра : 00:00:00:00
Оригинал временного кода : Group of pictures header
GOP, открыто/закрыто : Открыто
GOP, открыто/закрыто на первом кадре : Закрыто
Размер потока : 891 Мбайт (95%)
Библиотека кодирования : (dvd5: Jun 16 2014)
Аудио
Идентификатор : 192 (0xC0)
Формат : MPEG Audio
Версия формата : Version 1
Профиль формата : Layer 2
Продолжительность : 15 м. 39 с.
Вид битрейта : Постоянный
Битрейт : 256 Кбит/сек
Каналы : 2 канала
Частота : 44,1 КГц
Метод сжатия : С потерями
Размер потока : 28,7 Мбайт (3%)

Скриншот c названием фильма

Скриншоты

[cybertorrent.ru].t338.torrent 
Торрент: Зарегистрирован [ 2018-02-15 15:48 ] · 66359E92ADE642614EEB01F9B4D1AE122C78D14F

Скачать .torrent

Скачать

19 KB

Статус: проверено
Скачан: 0 раз
Размер: 938 MB
Профиль [ЛС]
Показать сообщения:    

Текущее время: 27-Май 01:41

Часовой пояс: UTC ± 0



Вы не можете начинать темы
Вы не можете отвечать на сообщения
Вы не можете редактировать свои сообщения
Вы не можете удалять свои сообщения
Вы не можете голосовать в опросах
Вы не можете прикреплять файлы к сообщениям
Вы можете скачивать файлы