Статистика раздачи
Размер:  700 MB   |    Зарегистрирован:  3 месяца 11 дней   |    Скачан:  0 раз

Полного источника не было: Никогда

 
   
 
 

lopster ®

Пол:
Не указан
Стаж:
3 месяца 11 дней
Сообщений:
612

Просто повезло!
Год выпуска: 2007
Жанр: Комедия
Продолжительность: 01:48:28
Режиссер: Андрей Анкудинов
В ролях: Аристарх Ливанов, Екатерина Редникова, Андрей Анкудинов, Игорь Юраш, Евгений Леонов-Гладышев, Валерий Поповский
Описание: Главный герой, которого все зовут просто Санечка, плывет по течению. Работы нет, жена ушла. Единственное, чего у него в избытке, - это верные друзья и природный дар относиться ко всем проблемам легко и беззаботно. Однажды Александр попадает в аварию - на своей машине он врезается в джип бизнесмена. Но надо же было такому случиться, что как раз в тот момент, когда это произошло, коммерсанта собирался застрелить киллер. Предприниматель был уже на мушке, и Санечка просто спас ему жизнь. Вскоре незадачливому актеру предлагают за большие деньги сыграть роль олигарха. По странному совпадению Санечка как две капли воды похож на человека, за которого должен себя выдавать. Вжившись в образ, Александр понимает, что существование "крутых" совсем не так безоблачно, как кажется со стороны. В конце концов он сам оказываеся под прицелом киллера. Но ему снова приходит на помощь случай...
Все раздачи фильма: Просто повезло!
Качество: SATRip
Формат: AVI
Видео кодек: XviD
Аудио кодек: MP3
Видео: 640x368; 770 kb/s
Аудио: 128 kb/s (64/ch, stereo) CBR ; 48000 Hz

MI

Код:Общее
Полное имя : C:\otkat\Видео\Просто повезло\Prosto.povezlo![torrents.ru].avi
Формат : AVI
Формат/Информация : Audio Video Interleave
Размер файла : 700 Мбайт
Продолжительность : 1 ч. 48 м.
Общий поток : 902 Кбит/сек
Программа кодирования : VirtualDubMod 1.5.4.1 (build 2178/release)
Библиотека кодирования : VirtualDubMod build 2178/release
Видео
Идентификатор : 0
Формат : MPEG-4 Visual
Профиль формата : Advanced Simple@L5
Параметр BVOP формата : 1
Параметр QPel формата : Нет
Параметр GMC формата : Без точки перехода
Параметр матрицы формата : Выборочная
Идентификатор кодека : XVID
Идентификатор кодека/Подсказка : XviD
Продолжительность : 1 ч. 48 м.
Битрейт : 767 Кбит/сек
Ширина : 640 пикселей
Высота : 368 пикселей
Соотношение сторон : 1,739
Частота кадров : 23,976 (23976/1000) кадра/сек
Цветовое пространство : YUV
Субдискретизация насыщенности : 4:2:0
Битовая глубина : 8 бит
Тип развёртки : Прогрессивная
Метод сжатия : С потерями
Бит/(Пиксели*Кадры) : 0.136
Размер потока : 595 Мбайт (85%)
Библиотека кодирования : XviD 1.2.0.dev47 (UTC 2006-11-01)
Аудио
Идентификатор : 1
Формат : MPEG Audio
Версия формата : Version 1
Профиль формата : Layer 3
Режим : Joint stereo
Расширение режима : MS Stereo
Идентификатор кодека : 55
Идентификатор кодека/Подсказка : MP3
Продолжительность : 1 ч. 48 м.
Вид битрейта : Постоянный
Битрейт : 128 Кбит/сек
Каналы : 2 канала
Частота : 48,0 КГц
Метод сжатия : С потерями
Размер потока : 99,3 Мбайт (14%)
Выравнивание : Соединение по промежуткам
Продолжительность промежутка : 83 мс. (2,00 видеокадра)
Время предзагрузки промежутка : 504 мс.
Библиотека кодирования : LAME3.97b
Настройки программы : -m j -V 4 -q 2 -lowpass 17 -b 128

Скриншоты


Отр. ReDoM
[cybertorrent.ru].t34.torrent 
Торрент: Зарегистрирован [ 2018-02-15 13:57 ] · 43EBA45CF48A2DE5C6BFA3F056B510840B219DA9

Скачать .torrent

Скачать

14 KB

Статус: проверено
Скачан: 0 раз
Размер: 700 MB
Профиль [ЛС]
Показать сообщения:    

Текущее время: 27-Май 01:38

Часовой пояс: UTC ± 0



Вы не можете начинать темы
Вы не можете отвечать на сообщения
Вы не можете редактировать свои сообщения
Вы не можете удалять свои сообщения
Вы не можете голосовать в опросах
Вы не можете прикреплять файлы к сообщениям
Вы можете скачивать файлы