Статистика раздачи
Размер:  1,45 GB   |    Зарегистрирован:  3 месяца 9 дней   |    Скачан:  0 раз

Полного источника не было: Никогда

Личеров:  6  [  0 KB/s  ]  
 
   
 
 

lopster ®

Пол:
Не указан
Стаж:
3 месяца 9 дней
Сообщений:
612

Зефир в шоколаде
Страна: Россия, Украина
Жанр: Комедия
Год выпуска: 1993
Продолжительность: 01:22:02
Режиссёр: Александр Павловский
В ролях: Злата Смирнова-Солодовникова, Антон Зайцев, Александр Панкратов-Черный, Ирина Муравьёва, Михаил Светин, Анун Дохуроо Адотей, Лариса Шахворостова, Сергей Зинченко, Владимир Волков, Владимир Наумцев...
Описание: Во время очередной попытки построить социализм в отдельно взятой африканской стране, отряд советских десантников — «интернационалистов» спасает мальчика-негритенка и увозит его в СССР. Советский Союз развалился, а ребенок вырос в детском доме, ничего не зная о своем происхождении: мало ли было в Стране Советов «фестивальных детей»?.
Но вот, перед самым уходом в армию, судьба сводит его с милой девушкой-блондинкой, мечтающей о музыкальной карьере. Именно через нее находится ключ к разгадке тайны рождения чернокожего красавца — тайне международного значения!
Сэмпл: http://multi-up.com/1162897
Качество видео: DVDRip-AVC
Формат видео: MKV
Видео: 692x574 (1.286) @ 738x574, 25.000 fps, AVC, ~2343 Kbps, 0.236 bits/pixel
Аудио: Russian, 48.0 KHz, AC3, 2 ch, 192 Kbps

Log

avs4x26x.exe: -L x264_64.exe --pass 2 --bitrate 2343 --preset medium --tune film --ref 10 --merange 32 --bframes 10 --direct auto --b-adapt 2 --trellis 2 --no-fast-pskip --no-dct-decimate --psy-rd 1.00:0.20 --subme 10 --me umh --rc-lookahead 50 --vbv-bufsize 14000 --vbv-maxrate 14000 --partitions p8x8,b8x8,i4x4,i8x8 --sar 16:15 --stats
raw [info]: 692x574p 16:15 @ 25/1 fps (cfr)
x264 [info]: using SAR=16/15
x264 [info]: using cpu capabilities: MMX2 SSE2Fast LZCNT
x264 [info]: profile High, level 3.1
x264 [info]: frame I:772 Avg QP:19.75 size: 52045
x264 [info]: frame P:23864 Avg QP:22.72 size: 25499
x264 [info]: frame B:98416 Avg QP:25.15 size: 8058
x264 [info]: consecutive B-frames: 0.9% 1.2% 6.7% 11.2% 8.3% 67.8% 2.2% 0.7% 0.6% 0.3% 0.2%
x264 [info]: mb I I16..4: 2.7% 88.0% 9.4%
x264 [info]: mb P I16..4: 0.6% 16.6% 1.9% P16..4: 41.5% 26.8% 12.5% 0.0% 0.0% skip: 0.2%
x264 [info]: mb B I16..4: 0.0% 1.5% 0.2% B16..8: 42.1% 15.0% 3.1% direct:10.2% skip:27.9% L0:37.9% L1:45.7% BI:16.5%
x264 [info]: 8x8 transform intra:86.5% inter:73.0%
x264 [info]: direct mvs spatial:98.1% temporal:1.9%
x264 [info]: coded y,uvDC,uvAC intra: 92.7% 84.4% 35.2% inter: 35.8% 32.9% 4.5%
x264 [info]: i16 v,h,dc,p: 25% 11% 11% 53%
x264 [info]: i8 v,h,dc,ddl,ddr,vr,hd,vl,hu: 15% 8% 8% 9% 11% 14% 11% 13% 11%
x264 [info]: i4 v,h,dc,ddl,ddr,vr,hd,vl,hu: 14% 30% 3% 6% 9% 12% 9% 9% 8%
x264 [info]: i8c dc,h,v,p: 37% 26% 20% 18%
x264 [info]: Weighted P-Frames: Y:17.2% UV:4.4%
x264 [info]: ref P L0: 37.4% 11.8% 17.8% 7.8% 6.6% 4.9% 4.9% 2.8% 2.9% 2.6% 0.5% 0.0%
x264 [info]: ref B L0: 73.4% 11.5% 5.2% 2.9% 2.2% 2.0% 1.6% 0.8% 0.3%
x264 [info]: ref B L1: 94.5% 5.5%
x264 [info]: kb/s:2343.24
x264 [total]: encoded 123052 frames, 9.23 fps, 2343.24 kb/s

MediaInfo

General
Unique ID : 235040958081469503630935796753850035571 (0xB0D33DEF4C7071C5844C3E8FC0A9ED73)
Complete name : C:\Зефир в шоколаде.mkv
Format : Matroska
Format version : Version 4 / Version 2
File size : 1.45 GiB
Duration : 1 h 22 min
Overall bit rate : 2 537 kb/s
Encoded date : UTC 2017-07-14 17:10:51
Writing application : mkvmerge v12.0.0 ('Trust / Lust') 64bit
Writing library : libebml v1.3.4 + libmatroska v1.4.5
Video
ID : 1
Format : AVC
Format/Info : Advanced Video Codec
Format profile : High@L3.1
Format settings, CABAC : Yes
Format settings, RefFrames : 10 frames
Codec ID : V_MPEG4/ISO/AVC
Duration : 1 h 22 min
Bit rate : 2 343 kb/s
Width : 692 pixels
Height : 574 pixels
Display aspect ratio : 1.286
Frame rate mode : Constant
Frame rate : 25.000 FPS
Color space : YUV
Chroma subsampling : 4:2:0
Bit depth : 8 bits
Scan type : Progressive
Bits/(Pixel*Frame) : 0.236
Stream size : 1.34 GiB (92%)
Writing library : x264 core 152 r2851 ba24899
Encoding settings : cabac=1 / ref=10 / deblock=1:-1:-1 / analyse=0x3:0x113 / me=umh / subme=10 / psy=1 / psy_rd=1.00:0.20 / mixed_ref=1 / me_range=32 / chroma_me=1 / trellis=2 / 8x8dct=1 / cqm=0 / deadzone=21,11 / fast_pskip=0 / chroma_qp_offset=-3 / threads=6 / lookahead_threads=1 / sliced_threads=0 / nr=0 / decimate=0 / interlaced=0 / bluray_compat=0 / constrained_intra=0 / bframes=10 / b_pyramid=2 / b_adapt=2 / b_bias=0 / direct=3 / weightb=1 / open_gop=0 / weightp=2 / keyint=250 / keyint_min=25 / scenecut=40 / intra_refresh=0 / rc_lookahead=50 / rc=2pass / mbtree=1 / bitrate=2343 / ratetol=1.0 / qcomp=0.60 / qpmin=0 / qpmax=69 / qpstep=4 / cplxblur=20.0 / qblur=0.5 / vbv_maxrate=14000 / vbv_bufsize=14000 / nal_hrd=none / filler=0 / ip_ratio=1.40 / aq=1:1.00
Language : Russian
Default : Yes
Forced : No
Audio
ID : 2
Format : AC-3
Format/Info : Audio Coding 3
Format settings, Endianness : Big
Codec ID : A_AC3
Duration : 1 h 22 min
Bit rate mode : Constant
Bit rate : 192 kb/s
Channel(s) : 2 channels
Channel positions : Front: L R
Sampling rate : 48.0 kHz
Frame rate : 31.250 FPS (1536 SPF)
Bit depth : 16 bits
Compression mode : Lossy
Stream size : 113 MiB (8%)
Language : Russian
Service kind : Complete Main
Default : Yes
Forced : No
Menu
00:00:00.000 : :Chapter 01
00:11:07.360 : :Chapter 02
00:23:06.520 : :Chapter 03
00:25:38.200 : :Chapter 04
00:33:10.360 : :Chapter 05
00:35:57.280 : :Chapter 06
00:43:06.400 : :Chapter 07
00:49:43.000 : :Chapter 08
00:57:17.560 : :Chapter 09
01:08:04.120 : :Chapter 10
01:10:45.880 : :Chapter 11
01:20:48.520 : :Chapter 12

Скриншоты

[cybertorrent.ru].t340.torrent 
Торрент: Зарегистрирован [ 2018-02-15 15:48 ] · CAC1626C52271510265C5A6C4A96C4B1762A2241

Скачать .torrent

Скачать

15 KB

Статус: проверено
Скачан: 0 раз
Размер: 1,45 GB
Профиль [ЛС]
Показать сообщения:    

Текущее время: 25-Май 08:45

Часовой пояс: UTC ± 0



Вы не можете начинать темы
Вы не можете отвечать на сообщения
Вы не можете редактировать свои сообщения
Вы не можете удалять свои сообщения
Вы не можете голосовать в опросах
Вы не можете прикреплять файлы к сообщениям
Вы можете скачивать файлы