Статистика раздачи
Размер:  1,37 GB   |    Зарегистрирован:  3 месяца 12 дней   |    Скачан:  0 раз

Полного источника не было: Никогда

 
   
 
 

lopster ®

Пол:
Не указан
Стаж:
3 месяца 12 дней
Сообщений:
612

Счастье по контракту
Жанр: мелодрама, комедия
Год выпуска: 2010
Продолжительность: 1:27:29
Режиссёр: Владислав Николаев
В ролях: Сергей Жигунов, Ксения Лаврова-Глинка, Андрей Ильин, Александр Песков, Александр Яцко, Елена Валюшкина, Александра Флоринская, Сергей Габриэлян, Лариса Лужина, Александр Сигуев, Игорь Золотовицкий, Марина Гайзидорская, Владимир Тягичев, Оксана Кутузова, Наталья Тищенко, Юлия Полынская, Василий Брыков, Игорь Белов, Сергей Климов, Александра Шевченко, Оксана Жеребцова, Борис Тарасов, Евгений Стулов, Жора Тарасов, Игорь Дёмин
Описание: Азартного холостяка друзья заковывают в полугодовые условно брачные узы, но у фиктивных мужа и жены тузов в рукавах оказывается поровну...
Сэмпл: http://multi-up.com/1163445

Качество видео: SATRip
Формат видео: AVI
Видео: XviD, 688x384, 1.79:1, 25 fps, 2036 kbps, 0.308 bpp
Аудио: AC3, 48 kHz, 192 kbps, stereo

MediaInfo

Complete name : P:\Счастье по контракту (2010) SATRip.avi
Format : AVI
Format/Info : Audio Video Interleave
File size : 1.37 GiB
Duration : 1h 27mn
Overall bit rate : 2 238 Kbps
Writing application : VirtualDubMod 1.5.10.2 (build 2540/release)
Writing library : VirtualDubMod build 2540/release
Video
ID : 0
Format : MPEG-4 Visual
Format profile : Advanced Simple@L5
Format settings, BVOP : 2
Format settings, QPel : No
Format settings, GMC : No warppoints
Format settings, Matrix : Default (H.263)
Codec ID : XVID
Codec ID/Hint : XviD
Duration : 1h 27mn
Bit rate : 2 036 Kbps
Width : 688 pixels
Height : 384 pixels
Display aspect ratio : 16:9
Frame rate : 25.000 fps
Color space : YUV
Chroma subsampling : 4:2:0
Bit depth : 8 bits
Scan type : Progressive
Compression mode : Lossy
Bits/(Pixel*Frame) : 0.308
Stream size : 1.24 GiB (91%)
Writing library : XviD 1.1.2 (UTC 2006-11-01)
Audio
ID : 1
Format : AC-3
Format/Info : Audio Coding 3
Mode extension : CM (complete main)
Format settings, Endianness : Big
Codec ID : 2000
Duration : 1h 27mn
Bit rate mode : Constant
Bit rate : 192 Kbps
Channel(s) : 2 channels
Channel positions : Front: L R
Sampling rate : 48.0 KHz
Bit depth : 16 bits
Compression mode : Lossy
Stream size : 120 MiB (9%)
Alignment : Split accross interleaves
Interleave, duration : 40 ms (1.00 video frame)
Interleave, preload duration : 500 ms

Сравнение

В существующей раздаче меньше наполнение кадра, хуже разрешение и небольшая рассинхронизация, но лучше устранение чересстрочности, полные титры и отсутствие послерекламных стыков, т.е. ощущение, что изначально снятый на древнюю аналоговую чересстрочную камеру оригинал кто-то скинул на VHS, потому что сам канал, и поныне вещающий в чересстрочном режиме, зачем-то сразу слил фильм в прогрессивный режим, причём, самым примитивным и вандальным фильтром чересстрочности "blend", и с тех пор так и показывает его.

Скриншот c названием фильма

Скриншоты

[cybertorrent.ru].t346.torrent 
Торрент: Зарегистрирован [ 2018-02-15 15:48 ] · E65F39F456AEA0F19A1CC7DF9AAD5C0D6F78733B

Скачать .torrent

Скачать

14 KB

Статус: проверено
Скачан: 0 раз
Размер: 1,37 GB
Профиль [ЛС]
Показать сообщения:    

Текущее время: 28-Май 08:10

Часовой пояс: UTC ± 0



Вы не можете начинать темы
Вы не можете отвечать на сообщения
Вы не можете редактировать свои сообщения
Вы не можете удалять свои сообщения
Вы не можете голосовать в опросах
Вы не можете прикреплять файлы к сообщениям
Вы можете скачивать файлы