Статистика раздачи
Размер:  1,46 GB   |    Зарегистрирован:  3 месяца 8 дней   |    Скачан:  0 раз

Полного источника не было: Никогда

 
   
 
 

lopster ®

Пол:
Не указан
Стаж:
3 месяца 8 дней
Сообщений:
612

Тень
Жанр: драма
Год выпуска: 2016
Продолжительность: 01:51:23
Субтитры: нет-Режиссер:
Дмитрий Светозаров-В ролях:
Михаил Пореченков, Юрий Стоянов, Варвара Щербакова, Павел Чернявский, Сергей Васильев, Анна Степанова, Евгений Катаев, Петр Логачев, Татьяна Тузова, Оксана Базилевич-Описание:
История преуспевающего бизнесмена Бориса Гордина, у которого, казалось бы, жизнь удалась. Он молод, красив и имеет все, о чем многие лишь мечтают: успех, семью, большой дом… Но ничто не наполняет его жизнь смыслом, не вызывает подлинный интерес, пока однажды Гордин не находит фотографию звезды немого кино. Его настолько завораживает красота актрисы, что он решает найти современную девушку, похожую на нее. Вероника, которая, как две капли воды, похожа на актрису немого кино Веру Листовскую, живет в старой казарме в маленьком провинциальном городке, работает на лесопилке. За ней ухаживает начинающий писатель, а фактически — бывший зэк Изюмов, которого девушка приютила после освобождения. Ей кажется, что в жизни все всегда будет неизменно серо, пока судьба не стучится в ее дверь со странным и неожиданным предложением…-Качество видео: WEB-DLRip
Формат видео: AVI
Видео: 720x400 (1.80:1), 24.000 fps, XviD build 73 ~1479 kbps avg, 0.21 bit/pixel
Аудио: 48 kHz, AC3 Dolby Digital, 3/2 (L,C,R,l,r) + LFE ch, ~384 kbps-Скачать сэмпл-

MediaInfo

Код:Format : AVI
Format/Info : Audio Video Interleave
File size : 1.46 GiB
Duration : 1 h 51 min
Overall bit rate : 1 873 kb/s
Writing application : VirtualDubMod 1.5.10.3 | www.virtualdub-fr.org || (build 2550/release)
Writing library : VirtualDubMod build 2550/release
Video
ID : 0
Format : MPEG-4 Visual
Format profile : Advanced Simple@L5
Format settings, BVOP : 1
Format settings, QPel : No
Format settings, GMC : No warppoints
Format settings, Matrix : Custom
Codec ID : XVID
Codec ID/Hint : XviD
Duration : 1 h 51 min
Bit rate : 1 479 kb/s
Width : 720 pixels
Height : 400 pixels
Display aspect ratio : 16:9
Frame rate : 24.000 FPS
Color space : YUV
Chroma subsampling : 4:2:0
Bit depth : 8 bits
Scan type : Progressive
Compression mode : Lossy
Bits/(Pixel*Frame) : 0.214
Stream size : 1.15 GiB (79%)
Writing library : XviD 73
Audio
ID : 1
Format : AC-3
Format/Info : Audio Coding 3
Format settings, Endianness : Big
Codec ID : 2000
Duration : 1 h 51 min
Bit rate mode : Constant
Bit rate : 384 kb/s
Channel(s) : 6 channels
Channel positions : Front: L C R, Side: L R, LFE
Sampling rate : 48.0 kHz
Frame rate : 31.250 FPS (1536 SPF)
Bit depth : 16 bits
Compression mode : Lossy
Stream size : 306 MiB (21%)
Alignment : Split accross interleaves
Interleave, duration : 42 ms (1.00 video frame)
Interleave, preload duratio : 500 ms
Service kind : Complete Main

Скриншоты

[cybertorrent.ru].t347.torrent 
Торрент: Зарегистрирован [ 2018-02-15 15:48 ] · E03C5340FCCB52B1BD66CE3FD12F05334FF6C8BB

Скачать .torrent

Скачать

15 KB

Статус: проверено
Скачан: 0 раз
Размер: 1,46 GB
Профиль [ЛС]
Показать сообщения:    

Текущее время: 23-Май 16:47

Часовой пояс: UTC ± 0



Вы не можете начинать темы
Вы не можете отвечать на сообщения
Вы не можете редактировать свои сообщения
Вы не можете удалять свои сообщения
Вы не можете голосовать в опросах
Вы не можете прикреплять файлы к сообщениям
Вы можете скачивать файлы