Статистика раздачи
Размер:  1,46 GB   |    Зарегистрирован:  6 месяцев 29 дней   |    Скачан:  0 раз

Полного источника не было: Никогда

   
 

Гость ®

Пол:
Не указан

Бабушка легкого поведения 2
Жанр: комедия
Год выпуска: 2019
Продолжительность: 01:22:09
Режиссёр: Марюс Вайсберг
В ролях: Александр Ревва, Глюк'ozа, Марина Федункив, Дмитрий Нагиев, Евгений Герчаков, Елена Валюшкина, Наталья Бардо, Михаил Галустян, Роман Курцын, Мария Горбань, Ирина Бякова, Андрей Родной, Артемий Падалка, Филипп Киркоров, Влад Соколовский

Описание: В продолжении популярной комедии зрителей вновь ждет встреча с обаятельным аферистом Сашей Рубенштейном и командой пенсионеров, которые теперь перебрались в Москву. Но их счастливой жизни приходит конец, когда банк, в котором хранятся все сбережения стариков, банкротит беспринципный олигарх Бородин. Саша и «ОПГ — организованная пенсионная группировка» опять объединяются, чтобы отомстить обидчику.

Кинопоиск
Sample
Качество видео: WEB-DLRip
Формат видео: AVI
Видео: 720x400 (1.80:1), 25 fps, XviD build 73 ~2342 kbps avg, 0.33 bit/pixel
Аудио: 48 kHz, AC3 Dolby Digital, 2/0 (L,R) ch, ~192 kbps

MediaInfo

General
Complete name : D:\Babushka.legkogo.povedeniya-2.2019.WEB-DLRip.avi
Format : AVI
Format/Info : Audio Video Interleave
File size : 1.46 GiB
Duration : 1 h 22 min
Overall bit rate : 2 544 kb/s
Writing application : VirtualDubMod 1.5.10.3 | www.virtualdub-fr.org || (build 2550/release)
Writing library : VirtualDubMod build 2550/release
Video
ID : 0
Format : MPEG-4 Visual
Format profile : Advanced Simple@L5
Format settings : BVOP1
Format settings, BVOP : 1
Format settings, QPel : No
Format settings, GMC : No warppoints
Format settings, Matrix : Default (MPEG)
Codec ID : XVID
Codec ID/Hint : XviD
Duration : 1 h 22 min
Bit rate : 2 343 kb/s
Width : 720 pixels
Height : 400 pixels
Display aspect ratio : 16:9
Frame rate : 25.000 FPS
Color space : YUV
Chroma subsampling : 4:2:0
Bit depth : 8 bits
Scan type : Progressive
Compression mode : Lossy
Bits/(Pixel*Frame) : 0.325
Stream size : 1.34 GiB (92%)
Writing library : XviD 73
Audio
ID : 1
Format : AC-3
Format/Info : Audio Coding 3
Codec ID : 2000
Duration : 1 h 22 min
Bit rate mode : Constant
Bit rate : 192 kb/s
Channel(s) : 2 channels
Channel positions : Front: L R
Sampling rate : 48.0 kHz
Frame rate : 31.250 FPS (1536 SPF)
Bit depth : 16 bits
Compression mode : Lossy
Stream size : 113 MiB (8%)
Alignment : Split accross interleaves
Interleave, duration : 40 ms (1.00 video frame)
Interleave, preload duratio : 500 ms
Service kind : Complete Main

Скриншоты



[cybertorrent.ru].t349.torrent 
Торрент: Зарегистрирован [ 2019-03-18 10:04 ] · AC0DCDF679FA40644573D7B38BD1F4BBA060AF00

Скачать .torrent

Скачать

15 KB

Статус: проверено
Скачан: 0 раз
Размер: 1,46 GB
terms.php
Показать сообщения:    

Текущее время: 17-Окт 07:53

Часовой пояс: UTC ± 0



Вы не можете начинать темы
Вы не можете отвечать на сообщения
Вы не можете редактировать свои сообщения
Вы не можете удалять свои сообщения
Вы не можете голосовать в опросах
Вы не можете прикреплять файлы к сообщениям
Вы можете скачивать файлы