Статистика раздачи
Размер:  1,35 GB   |    Зарегистрирован:  3 месяца 6 дней   |    Скачан:  0 раз

Полного источника не было: Никогда

 
   
 
 

lopster ®

Пол:
Не указан
Стаж:
3 месяца 6 дней
Сообщений:
612

Блокбастер- Жанр: Комедия, криминал
Год выпуска: 2017
Продолжительность: 01:18:15
Режиссёр: Роман Волобуев
В ролях: Светлана Устинова, Анна Чиповская, Евгений Цыганов, Юлия Снигирь, Михаил Ефремов, Александр Молочников, Дмитрий Ендальцев, Светлана Ходченкова, Дарья Носик
Описание: Лиза, доведенная до нервного срыва коллегами на опостылевшей работе и распутным бойфрендом, садится в машину и уезжает из Москвы в неизвестном ей самой направлении. Глухой ночью она становится свидетельницей налета на точку микрокредитования в райцентре Электроугли и оказывается в заложниках у ослепительно красивой, но очень плохо соображающей грабительницы по имени Наташа.
Сэмпл: http://multi-up.com/1164537
Качество видео: WEB-DLRip
Формат видео: AVI
Видео: 720x304 (2.35:1), 25.000 fps, XviD, 2274 Kbps, 0.41 Bits/Pixel
Аудио: 48 kHz, AC3 Dolby Digital, 2 ch, 192 Kbps

MediaInfo

General
Complete name : Downloads\Blokbaster.2017.XviD.1400MB.WEB-DLRip
Format : AVI
Format/Info : Audio Video Interleave
File size : 1.35 GiB
Duration : 1h 18mn
Overall bit rate : 2 476 Kbps
Writing application : VirtualDubMod 1.5.10.2 (build 2540/release)
Writing library : VirtualDubMod build 2540/release
Video #0
ID : 0
Format : MPEG-4 Visual
Format profile : Advanced Simple@L5
Format settings, BVOP : 1
Format settings, QPel : No
Format settings, GMC : No warppoints
Format settings, Matrix : Custom
Codec ID : XVID
Codec ID/Hint : XviD
Duration : 1h 18mn
Bit rate : 2 274 Kbps
Width : 720 pixels
Height : 304 pixels
Display aspect ratio : 2.35:1
Frame rate : 25.000 fps
Color space : YUV
Chroma subsampling : 4:2:0
Bit depth : 8 bits
Scan type : Progressive
Compression mode : Lossy
Bits/(Pixel*Frame) : 0.416
Stream size : 1.24 GiB (92%)
Writing library : XviD 1.2.1 (UTC 2008-12-04)
Audio #1
ID : 1
Format : AC-3
Format/Info : Audio Coding 3
Mode extension : CM (complete main)
Format settings, Endianness : Big
Codec ID : 2000
Duration : 1h 18mn
Bit rate mode : Constant
Bit rate : 192 Kbps
Channel(s) : 2 channels
Channel positions : Front: L R
Sampling rate : 48.0 KHz
Bit depth : 16 bits
Compression mode : Lossy
Stream size : 107 MiB (8%)
Alignment : Split accross interleaves
Interleave, duration : 40 ms (1.00 video frame)
Interleave, preload duration : 500 ms

Скриншот c названием фильма

Скриншоты

[cybertorrent.ru].t349.torrent 
Торрент: Зарегистрирован [ 2018-02-15 15:48 ] · 90E97B1393AF13899D8694C8B76D64D1DC0D1D15

Скачать .torrent

Скачать

14 KB

Статус: проверено
Скачан: 0 раз
Размер: 1,35 GB
Профиль [ЛС]
Показать сообщения:    

Текущее время: 21-Май 18:56

Часовой пояс: UTC ± 0



Вы не можете начинать темы
Вы не можете отвечать на сообщения
Вы не можете редактировать свои сообщения
Вы не можете удалять свои сообщения
Вы не можете голосовать в опросах
Вы не можете прикреплять файлы к сообщениям
Вы можете скачивать файлы