Статистика раздачи
Размер:  121 MB   |    Зарегистрирован:  7 месяцев 2 дня   |    Скачан:  0 раз

Полного источника не было: Никогда

   
 

Гость ®

Пол:
Не указан

Будет ласковый дождь
Страна: СССР (Узбекская республика)
Жанр: мультфильм, экранизация
Продолжительность: 00:10:25
Год выпуска: 1984
Режиссёр: Назим Туляходжаев
Композитор: Феликс Янов-Яновский
Использована песня "The Moon was yellow" в исполнении Джеральдо / Geraldo
Описание: По мотивам одноимённого фантастического рассказа Рэя Брэдбери.
Мрачный постапокалиптический сюжет. Канун нового 2027 года. Робот-дворецкий будит своих хозяев-людей, готовит им завтрак... в то время, как от людей остался лишь прах.
Доп. информация:
Первая премия по разделу мультфильмов - Всесоюзный кинофестиваль в Минске (1985)
Главный приз "Золотой голубь" - Международный кинофестиваль в Лейпциге (1985)
Приз "Серебряный дракон" - Международный кинофестиваль в Бильбао (1986)
Качество: WEBRip
Формат: AVI
Видео: 1492 kbps, 720х304 (2.35:1), 25.000 fps, MPEG-4 Visual (XviD)
Аудио: 128 kbps, 44.1 kHz, 2 channels, MPEG Audio (MP3)
Субтитры: отсутствуют

Подробные технические данные

General
Complete name : Будет ласковый дождь (1984).avi
Format : AVI
Format/Info : Audio Video Interleave
File size : 121 MiB
Duration : 10mn 25s
Overall bit rate : 1 630 Kbps
Writing application : VirtualDubMod 1.5.10.2 (build 2540/release)
Writing library : VirtualDubMod build 2540/release
Video
ID : 0
Format : MPEG-4 Visual
Format profile : Advanced Simple@L5
Format settings, BVOP : 2
Format settings, QPel : No
Format settings, GMC : No warppoints
Format settings, Matrix : Default (H.263)
Codec ID : XVID
Codec ID/Hint : XviD
Duration : 10mn 25s
Bit rate : 1 492 Kbps
Width : 720 pixels
Height : 304 pixels
Display aspect ratio : 2.35:1
Frame rate : 25.000 fps
Color space : YUV
Chroma subsampling : 4:2:0
Bit depth : 8 bits
Scan type : Progressive
Compression mode : Lossy
Bits/(Pixel*Frame) : 0.273
Stream size : 111 MiB (92%)
Writing library : XviD 73
Audio
ID : 1
Format : MPEG Audio
Format version : Version 1
Format profile : Layer 3
Codec ID : 55
Codec ID/Hint : MP3
Duration : 10mn 25s
Bit rate mode : Constant
Bit rate : 128 Kbps
Channel(s) : 2 channels
Sampling rate : 44.1 KHz
Compression mode : Lossy
Stream size : 9.54 MiB (8%)
Alignment : Split accross interleaves
Interleave, duration : 40 ms (1.00 video frame)
Interleave, preload duration : 500 ms

Скриншоты

Текст финального стихотворения

Сара Тисдэйл "Будет ласковый дождь"
(перевод Льва Жданова)
Будет ласковый дождь, будет запах земли,
Щебет юрких стрижей от зари до зари,
И ночные рулады лягушек в прудах,
И цветение слив в белопенных садах.
Огнегрудый комочек слетит на забор,
И малиновки трель выткет звонкий узор.
И никто, и никто не вспомянет войну —
Пережито-забыто, ворошить ни к чему.
И ни птица, ни ива слезы не прольёт,
Если сгинет с Земли человеческий род.
И весна… и весна встретит новый рассвет,
Не заметив, что нас уже нет.
1920.
[cybertorrent.ru].t351.torrent 
Торрент: Зарегистрирован [ 2019-03-18 10:04 ] · FAF06A93716C1B5533F0FA20B58E66C1EF7A20E6

Скачать .torrent

Скачать

20 KB

Статус: проверено
Скачан: 0 раз
Размер: 121 MB
terms.php
Показать сообщения:    

Текущее время: 20-Окт 11:51

Часовой пояс: UTC ± 0



Вы не можете начинать темы
Вы не можете отвечать на сообщения
Вы не можете редактировать свои сообщения
Вы не можете удалять свои сообщения
Вы не можете голосовать в опросах
Вы не можете прикреплять файлы к сообщениям
Вы можете скачивать файлы