Статистика раздачи
Размер:  746 MB   |    Зарегистрирован:  3 месяца 12 дней   |    Скачан:  1 раз

Полного источника не было: 1 месяц 11 дней

Личеров:  1  [  0 KB/s  ]  
 
   
 
 

lopster ®

Пол:
Не указан
Стаж:
3 месяца 12 дней
Сообщений:
612

ДОМ НА ОБОЧИНЕ
Жанр: драма, мелодрама
Год выпуска: 2011
Продолжительность: 01:38:00
Режиссёр: Антон Сиверс
В ролях: Андрей Мерзликин, Кристина Кузьмина, Татьяна Черкасова, Андрей Носков, Николай Добрынин, Валерий Немешаев, Федя Никитин, Роман Кочержевский
Описание: Фильм о чувстве вины и попытках ее искупить, о любви и измене, о том, как трудно и важно сказать слово "прости"...
«Главная мысль фильма – Господь дает людям возможность исправить свою жизнь. Фильм, надеюсь, будет интересен всем, а тем, кто тонко мыслит – особенно. В картине много психологических переплетений, так что тем, кто умеет их распознавать, смотреть будет еще интереснее». (Антон Сиверс, режиссер)
«Пронзительная человеческая история, которая вряд ли кого-нибудь сможет оставить равнодушным». (Юрий Сапронов, гендиректор RWS)
«Фильм повествует о том, как, живя рядом, мы не замечаем друг друга, и пролистываем отношения, доводим все до момента кризиса, когда уже нет обратной дороги и только потом, понимаем, как много потеряли. В этой истории все настолько же просто, насколько сильно и трогательно. Думаю, что многие проживают те же события, что и герои картины». (Кристина Кузьмина, актриса)
Доп. информация:
Автор сценария: Олег Маловичко
Оператор: Юрий Шайгарданов
Продюсеры: Андрей Смирнов, Юрий Сапронов, Дмитрий Месхиев, Леонид Верещагин, Никита Михалков, Михаил Вавилов
Композитор: Дарин Сысоев
Премьера: 9 февраля 2012
Награды
2011г. - Приз им. Княжинского за лучшую операторскую работу на XX Открытом Фестивале кино стран СНГ, Латвии, Литвы и Эстонии "Киношок" в Анапе (Юрий Шайгарданов).
2011г. - Приз за лучшую женскую роль на IX Фестивале кино и театра на Амуре "Амурская осень" (Татьяна Черкасова).
2011г. - Приз за лучшую женскую роль на VI МКФ семейных и детских фильмов "В кругу семьи" в Екатеринбурге (Татьяна Черкасова).
2012г. - Приз "Серебряный грифон" на ХХ международном "Фестивале фестивалей" в Санкт-Петербурге.
16+
Сэмпл: https://www.sendspace.com/file/o9vh65
Качество видео: DVDRip
Формат видео: AVI
Видео: 672х384 (1,75:1), XviD, 25 fps, 862 kbps, 0.134 bit/pixel
Аудио: AC3, 48 kHz, 2ch, 192 kbps

MediaInfo

Общее
Формат: AVI
Формат/Информация: Audio Video Interleave
Размер файла: 746 Мбайт
Продолжительность: 1 ч. 38 м.
Общий поток: 1064 Кбит/сек
Библиотека кодирования: VirtualDub build 32842/release
Видео
Идентификатор: 0
Формат: MPEG-4 Visual
Профиль формата: Advanced Simple@L5
Параметр BVOP формата: 2
Параметр QPel формата: Нет
Параметр GMC формата: Без точки перехода
Параметр матрицы формата: Default (H.263)
Режим смешивания: Сжатый битовый поток
Идентификатор кодека: XVID
Идентификатор кодека/Подсказка: XviD
Продолжительность: 1 ч. 38 м.
Битрейт: 862 Кбит/сек
Ширина: 672 пикселя
Высота: 384 пикселя
Соотношение сторон: 1:1,75
Частота кадров: 25,000 кадров/сек
Цветовое пространство: YUV
Субдискретизация насыщенности: 4:2:0
Битовая глубина: 8 бит
Тип развёртки: Прогрессивная
Метод сжатия: С потерями
Бит/(Пиксели*Кадры): 0.134
Размер потока: 604 Мбайт (81%)
Библиотека кодирования: XviD 1.2.0.dev47 (UTC 2006-11-01)
Аудио
Идентификатор: 1
Формат: AC-3
Формат/Информация: Audio Coding 3
Параметр Endianness формата: Big
Идентификатор кодека: 2000
Продолжительность: 1 ч. 38 м.
Вид битрейта: Постоянный
Битрейт: 192 Кбит/сек
Каналы: 2 канала
Расположение каналов: Front: L R
Частота: 48,0 КГц
Частота кадров: 31,250 кадров/сек (1536 spf)
Битовая глубина: 16 бит
Метод сжатия: С потерями
Размер потока: 135 Мбайт (18%)
Выравнивания: Соединение по промежуткам
Продолжительность промежутка: 40 мс. (1,00 видеокадр)
Время предзагрузки промежутка: 512 мс.
ServiceKind/String: Complete Main

Скриншот c названием фильма

Скриншоты

1,46 GB
[cybertorrent.ru].t354.torrent 
Торрент: Зарегистрирован [ 2018-02-15 15:48 ] · 0BECAFA0A847EA6529546CF9DB309C7355B696CA

Скачать .torrent

Скачать

15 KB

Статус: проверено
Скачан: 1 раз
Размер: 746 MB
Профиль [ЛС]
Показать сообщения:    

Текущее время: 28-Май 03:10

Часовой пояс: UTC ± 0



Вы не можете начинать темы
Вы не можете отвечать на сообщения
Вы не можете редактировать свои сообщения
Вы не можете удалять свои сообщения
Вы не можете голосовать в опросах
Вы не можете прикреплять файлы к сообщениям
Вы можете скачивать файлы