Статистика раздачи
Размер:  3,96 GB   |    Зарегистрирован:  3 месяца 7 дней   |    Скачан:  0 раз

Полного источника не было: Никогда

Личеров:  1  [  0 KB/s  ]  
 
   
 
 

lopster ®

Пол:
Не указан
Стаж:
3 месяца 7 дней
Сообщений:
612

Безумной страстью ты сама ко мне пылаешь- Страна: СССР
Студия: Беларусьфильм
Жанр: социальная драма
Год выпуска: 1991 (Премьера: февраль 1992)
Продолжительность:-Режиссер: Николай Князев
В ролях: Неле Савиченко-Климене, Геннадий Бортников, Геннадий Шатунов, Ростислав Янковский, Толиб Хамидов, Катя Кримачик, Татьяна Васильева (IV), Александра Харитонова, Леонид Лютвинский, В. Гамболевская, Р. Сотник, Татьяна Трескунова, Вероника (Ника) Козоровицкая...-Описание: Лилипут Федор Безуглов работал в цирке в одном номере с известным иллюзионистом Антуаном Шаламовым. Несмотря на то, что его окружали самые разнообразные люди, чувствовал себя Федор страшно одиноким. Под цирковой суетой скрывалась пустота. И заполнить ее не мог никто. Светлая тоска по совершенству, предчувствие глубоких и сильных страстей однажды толкнули его на связь с обычной женщиной Анной - женой Антуана Шаламова...
Использованы мотивы В.Набокова, И.Бунина, Н.Гумилева, Н.Бердяева, Д.Хармса.-Релиз: -Семпл: http://sendfile.su/1357176-Тип релиза: VHSRip
Контейнер: MPG
Видео: 704x576 (4:3), 25.000 fps, MPEG-2 Video, ~7148 Kbps, 0.705 bits/pixel
Аудио: Русский, 48.0 KHz, AC3, 2 ch, 256 Kbps

MediaInfo

General
Complete name : Безумной страстью ты сама ко мне пылаешь 1991.mpg
Format : MPEG-PS
File size : 3.96 GiB
Duration : 1 h 15 min
Overall bit rate mode : Variable
Overall bit rate : 7 554 kb/s
Video
ID : 224 (0xE0)
Format : MPEG Video
Format version : Version 2
Format profile : Main@Main
Format settings, BVOP : Yes
Format settings, Matrix : Custom
Format settings, GOP : M=3, N=12
Format settings, picture structure : Frame
Duration : 1 h 15 min
Bit rate mode : Variable
Bit rate : 7 147 kb/s
Maximum bit rate : 9 586 kb/s
Width : 704 pixels
Height : 576 pixels
Display aspect ratio : 4:3
Frame rate : 25.000 FPS
Standard : PAL
Color space : YUV
Chroma subsampling : 4:2:0
Bit depth : 8 bits
Scan type : Interlaced
Scan order : Top Field First
Compression mode : Lossy
Bits/(Pixel*Frame) : 0.705
Time code of first frame : 00:00:00:00
Time code source : Group of pictures header
Stream size : 3.75 GiB (95%)
Color primaries : BT.601 PAL
Transfer characteristics : BT.470 System B, BT.470 System G
Matrix coefficients : BT.470 System B, BT.470 System G
Audio
ID : 189 (0xBD)-128 (0x80)
Format : AC-3
Format/Info : Audio Coding 3
Format settings, Endianness : Big
Muxing mode : DVD-Video
Duration : 1 h 15 min
Bit rate mode : Constant
Bit rate : 256 kb/s
Channel(s) : 2 channels
Channel positions : Front: L R
Sampling rate : 48.0 kHz
Frame rate : 31.250 FPS (1536 SPF)
Bit depth : 16 bits
Compression mode : Lossy
Stream size : 138 MiB (3%)
Service kind : Complete Main

Скриншоты

[cybertorrent.ru].t355.torrent 
Торрент: Зарегистрирован [ 2018-02-15 15:48 ] · D657FC69F6D11A8FA320A6717AB72B560F5BB5D4

Скачать .torrent

Скачать

20 KB

Статус: проверено
Скачан: 0 раз
Размер: 3,96 GB
Профиль [ЛС]
Показать сообщения:    

Текущее время: 22-Май 23:08

Часовой пояс: UTC ± 0



Вы не можете начинать темы
Вы не можете отвечать на сообщения
Вы не можете редактировать свои сообщения
Вы не можете удалять свои сообщения
Вы не можете голосовать в опросах
Вы не можете прикреплять файлы к сообщениям
Вы можете скачивать файлы