Статистика раздачи
Размер:  5,21 GB   |    Зарегистрирован:  3 месяца 12 дней   |    Скачан:  0 раз

Полного источника не было: Никогда

Личеров:  1  [  0 KB/s  ]  
 
   
 
 

lopster ®

Пол:
Не указан
Стаж:
3 месяца 12 дней
Сообщений:
612

Провинциальный бенефис
Страна: Россия
Студия: Аккорд-фильм, изд-во «Библиополис» при участии Ленфильм
Жанр: драма
Год выпуска: 1993
Продолжительность: 01:23:06
Режиссёр: Александр Белинский
В ролях: Александр Лазарев (мл.), Галина Вишневская, Лена Ростропович, Светлана Немоляева, Анжелика Неволина, Владислав Стржельчик, Вячеслав Тихонов, Владимир Самойлов, Леонид Куравлёв, Валентин Смирнитский, Всеволод Кузнецов, Елизавета Никищихина...
Описание: Любовь Ивановна Отрадина когда-то бежала из города Мурома, обманутая любимым, потеряв сына. Вернувшись через много лет известной оперной актрисой в родной город, она дает здесь прощальный концерт перед уходом со сцены. В этом же городе живут актеры Счастливцев и Несчастливцев, Саша Негина и Смельская…
Доп. информация: За предоставленный фильм благодарим - NickK88442200
Релиз
Сэмпл: https://yadi.sk/i/r8LaQVHJ3MGptN
Качество видео: VHSRip
Формат видео: MPG
Видео: 720x576 (4:3) @ 768x576, 25.000 fps, MPEG-2 Video, ~8576 Kbps, 0.827 bits/pixel
Аудио: 48.0 KHz, MPEG-1 Audio layer 2, 2 ch, 224 Kbps

MediaInfo

Провинциальный Бенефис 1993.mpg
Format : MPEG-PS
File size : 5.21 GiB
Duration : 1 h 23 min
Overall bit rate mode : Constant
Overall bit rate : 8 978 kb/s
Video
ID : 224 (0xE0)
Format : MPEG Video
Format version : Version 2
Format profile : Main@Main
Format settings, BVOP : Yes
Format settings, Matrix : Default
Format settings, GOP : M=3, N=12
Duration : 1 h 23 min
Bit rate mode : Constant
Bit rate : 8 576 kb/s
Maximum bit rate : 8 000 kb/s
Width : 720 pixels
Height : 576 pixels
Display aspect ratio : 4:3
Frame rate : 25.000 FPS
Standard : PAL
Color space : YUV
Chroma subsampling : 4:2:0
Bit depth : 8 bits
Scan type : Progressive
Compression mode : Lossy
Bits/(Pixel*Frame) : 0.827
Time code of first frame : 00:00:00:00
Time code source : Group of pictures header
GOP, Open/Closed : Open
GOP, Open/Closed of first f : Closed
Stream size : 4.98 GiB (96%)
Audio
ID : 192 (0xC0)
Format : MPEG Audio
Format version : Version 1
Format profile : Layer 2
Duration : 1 h 23 min
Bit rate mode : Constant
Bit rate : 224 kb/s
Channel(s) : 2 channels
Sampling rate : 48.0 kHz
Compression mode : Lossy
Stream size : 133 MiB (2%)

Скриншоты

[cybertorrent.ru].t356.torrent 
Торрент: Зарегистрирован [ 2018-02-15 15:48 ] · 0D67AC0A86F99CB84C0E7B6563CA78D8352993BE

Скачать .torrent

Скачать

27 KB

Статус: проверено
Скачан: 0 раз
Размер: 5,21 GB
Профиль [ЛС]
Показать сообщения:    

Текущее время: 28-Май 03:24

Часовой пояс: UTC ± 0



Вы не можете начинать темы
Вы не можете отвечать на сообщения
Вы не можете редактировать свои сообщения
Вы не можете удалять свои сообщения
Вы не можете голосовать в опросах
Вы не можете прикреплять файлы к сообщениям
Вы можете скачивать файлы