Статистика раздачи
Размер:  2,18 GB   |    Зарегистрирован:  4 месяца 18 дней   |    Скачан:  0 раз

Полного источника не было: Никогда

 
   
 
 

soda ®

Пол:
Не указан
Стаж:
5 месяцев 4 дня
Сообщений:
205

Под крышами Монмартра (2 серии)- Жанр: музыкальная комедия
Год выпуска: 1975
Продолжительность: 02:16:59-Режиссёр: Владимир Гориккер-В ролях:
Евгения Симонова, Валентина Смелкова, Александр Кайдановский, Игорь Старыгин, Владимир Носик, Людмила Касаткина, Владимир Басов, Олег Анофриев, Георгий Георгиу, Григорий Шпигель, Александр Белявский, Эммануил Геллер, Владимир Вязовик
Описание:
Экранизация оперетты Имре Кальмана "Фиалка Монмартра".
Скромная продавщица цветов, жившая из милости у хозяина кафе, внезапно оказалась без крова и в долгах. И вряд ли убереглась бы она от судьбы дамы с камелиями, если бы не помощь друзей, бедных но талантливых обитателей артистического Монмартра. А поскольку все это происходит в оперетте, не стоит удивляться тому, что очаровательная Виолетта в конце концов становится звездой - фиалкой Монмартра.-Сэмпл | Кинопоиск-Качество видео: DVDRip-AVC, за исходник спасибо namefortorrents
Формат видео: MKV
Видео: x264 (High@L4.1); 720@768x574 25.000 fps; Display aspect ratio: 4:3; 2080 Kbps
Аудио: Оригинал: AC-3; 16 bits 48 Khz; 2.0ch 192 Kbps; CBR

MediaInfo

x264 log

avs [info]: 720x574p 16:15 @ 25/1 fps (cfr)
x264 [info]: using SAR=16/15
x264 [info]: using cpu capabilities: MMX2 SSE2Fast SSSE3 SSE4.2
x264 [info]: profile High, level 4.1
x264 [info]: frame I:1094 Avg QP:20.57 size: 47273
x264 [info]: frame P:57377 Avg QP:22.91 size: 20126
x264 [info]: frame B:147018 Avg QP:24.65 size: 6330
x264 [info]: consecutive B-frames: 4.2% 5.3% 15.5% 40.9% 17.0% 16.3% 0.8% 0.1% 0.0%
x264 [info]: mb I I16..4: 2.4% 87.6% 10.0%
x264 [info]: mb P I16..4: 0.4% 15.3% 1.3% P16..4: 45.4% 24.0% 12.7% 0.4% 0.0% skip: 0.5%
x264 [info]: mb B I16..4: 0.0% 1.4% 0.2% B16..8: 43.7% 11.7% 2.7% direct: 7.6% skip:32.6% L0:37.1% L1:39.1% BI:23.8%
x264 [info]: 8x8 transform intra:89.2% inter:75.9%
x264 [info]: direct mvs spatial:99.6% temporal:0.4%
x264 [info]: coded y,uvDC,uvAC intra: 95.2% 77.4% 34.7% inter: 37.0% 25.6% 6.3%
x264 [info]: i16 v,h,dc,p: 18% 9% 8% 65%
x264 [info]: i8 v,h,dc,ddl,ddr,vr,hd,vl,hu: 14% 8% 3% 9% 13% 15% 12% 14% 12%
x264 [info]: i4 v,h,dc,ddl,ddr,vr,hd,vl,hu: 12% 7% 2% 9% 15% 17% 14% 13% 12%
x264 [info]: i8c dc,h,v,p: 31% 23% 27% 18%
x264 [info]: Weighted P-Frames: Y:24.9% UV:10.4%
x264 [info]: ref P L0: 46.0% 18.5% 12.5% 5.0% 3.7% 3.0% 2.5% 1.5% 1.3% 1.1% 1.0% 0.9% 0.8% 0.8% 0.8% 0.6%
x264 [info]: ref B L0: 89.9% 4.7% 1.5% 0.9% 0.6% 0.6% 0.4% 0.3% 0.2% 0.2% 0.2% 0.2% 0.1% 0.1% 0.1%
x264 [info]: ref B L1: 99.0% 1.0%
x264 [info]: kb/s:2079.98
-General
Unique ID : 194408451314438180177702641845623308942 (0x9241B4AE2F326E9F80F379653757C28E)
Complete name : Под крышами Монмартра.1975.mkv
Format : Matroska
Format version : Version 2
File size : 2.18 GiB
Duration : 2 h 16 min
Overall bit rate : 2 274 kb/s
Encoded date : UTC 2018-02-27 17:16:07
Writing application : mkvmerge v7.8.0 ('River Man') 32bit built on Mar 27 2015 16:18:02
Writing library : libebml v1.3.1 + libmatroska v1.4.2
Video
ID : 1
Format : AVC
Format/Info : Advanced Video Codec
Format profile : High@L4.1
Format settings, CABAC : Yes
Format settings, ReFrames : 16 frames
Codec ID : V_MPEG4/ISO/AVC
Duration : 2 h 16 min
Bit rate : 2 080 kb/s
Width : 720 pixels
Height : 574 pixels
Display aspect ratio : 4:3
Frame rate mode : Constant
Frame rate : 25.000 FPS
Color space : YUV
Chroma subsampling : 4:2:0
Bit depth : 8 bits
Scan type : Progressive
Bits/(Pixel*Frame) : 0.201
Stream size : 1.95 GiB (90%)
Title : Под крышами Монмартра.1975
Writing library : x264 core 152 r2851kMod ba24899
Encoding settings : cabac=1 / ref=16 / deblock=1:-2:-2 / analyse=0x3:0x133 / me=umh / subme=10 / psy=1 / fade_compensate=0.00 / psy_rd=0.90:0.20 / mixed_ref=1 / me_range=24 / chroma_me=1 / trellis=2 / 8x8dct=1 / cqm=0 / deadzone=21,11 / fast_pskip=0 / chroma_qp_offset=-3 / threads=12 / lookahead_threads=2 / sliced_threads=0 / nr=0 / decimate=0 / interlaced=0 / bluray_compat=0 / constrained_intra=0 / bframes=8 / b_pyramid=2 / b_adapt=2 / b_bias=0 / direct=3 / weightb=1 / open_gop=0 / weightp=2 / keyint=250 / keyint_min=25 / scenecut=40 / intra_refresh=0 / rc_lookahead=60 / rc=2pass / mbtree=0 / bitrate=2080 / ratetol=1.0 / qcomp=0.60 / qpmin=0 / qpmax=69 / qpstep=4 / cplxblur=20.0 / qblur=0.5 / vbv_maxrate=62500 / vbv_bufsize=78125 / nal_hrd=none / filler=0 / ip_ratio=1.30 / pb_ratio=1.30 / aq=2:0.90
Language : Russian
Default : Yes
Forced : No
Color range : Limited
Color primaries : BT.601 PAL
Transfer characteristics : BT.470 System B, BT.470 System G
Matrix coefficients : BT.601
Audio
ID : 2
Format : AC-3
Format/Info : Audio Coding 3
Mode extension : CM (complete main)
Format settings, Endianness : Big
Codec ID : A_AC3
Duration : 2 h 16 min
Bit rate mode : Constant
Bit rate : 192 kb/s
Channel(s) : 2 channels
Channel positions : Front: L R
Sampling rate : 48.0 kHz
Frame rate : 31.250 FPS (1536 spf)
Compression mode : Lossy
Stream size : 188 MiB (8%)
Title : Оригинал: AC-3; 16 bits 48 Khz; 2.0ch 192 Kbps; CBR
Language : Russian
Default : Yes
Forced : No
Menu
00:00:00.000 : ru:Титры. Музыкант, худохник и поэт
00:06:10.400 : ru:Фиалка Монмартра
00:13:16.600 : ru:Нинон
00:17:01.960 : ru:В мансарде
00:24:45.520 : ru:Министр изящных искусств
00:32:10.360 : ru:Мадам Арно
00:41:16.120 : ru:Успех Нинон
00:47:13.840 : ru:"Финита ля комедиа..."
00:51:47.880 : ru:Гонорар Рауля. Расчет с Париджи
01:02:06.160 : ru:"Теперь будет жизнь иная..."
01:06:32.280 : ru:Новая хозяйка мансарды
01:18:08.920 : ru:Коварные планы Фраскатти
01:23:40.800 : ru:Удача дядюшки Франсуа
01:29:00.800 : ru:Талант Виолетты
01:35:56.360 : ru:Оперетта
01:43:24.040 : ru:Приказ Министерства изящных искусств
01:50:35.600 : ru:Подготовка к премьере
01:57:54.560 : ru:Возвращение Рауля
02:08:13.200 : ru:Финал

Скриншоты

[cybertorrent.ru].t35669.torrent 
Торрент: Зарегистрирован [ 2018-03-01 06:15 ] · 482E09D25D6E6C40A2E4A38458BB6C3DE296DAA3

Скачать .torrent

Скачать

11 KB

Статус: проверено
Скачан: 0 раз
Размер: 2,18 GB
Профиль [ЛС]
Показать сообщения:    

Текущее время: 19-Июл 15:17

Часовой пояс: UTC ± 0



Вы не можете начинать темы
Вы не можете отвечать на сообщения
Вы не можете редактировать свои сообщения
Вы не можете удалять свои сообщения
Вы не можете голосовать в опросах
Вы не можете прикреплять файлы к сообщениям
Вы можете скачивать файлы