Статистика раздачи
Размер:  1,09 GB   |    Зарегистрирован:  3 месяца 11 дней   |    Скачан:  0 раз

Полного источника не было: Никогда

Личеров:  1  [  0 KB/s  ]  
 
   
 
 

lopster ®

Пол:
Не указан
Стаж:
3 месяца 11 дней
Сообщений:
612

Безумной страстью ты сама ко мне пылаешь
Страна: Беларусь
Жанр: драма
Год выпуска: 1991
Продолжительность: 01:15:08
Режиссёр: Николай Князев
В ролях: Нелли Савиченко
Геннадий Бортников
Геннадий Шатунов
Ростислав Янковский
Толиб Хамидов
Александра Харитонова
Эвелина Сакуро
Татьяна Васильева
Татьяна Трескунова
Катя Кримачик
Описание: Лилипут Федор Безуглов работал в цирке в одном номере с известным иллюзионистом Антуаном Шаламовым. Несмотря на то, что его окружали самые разнообразные люди, чувствовал себя Федор страшно одиноким. Под цирковой суетой скрывалась пустота. И заполнить ее не мог никто. Светлая тоска по совершенству, предчувствие глубоких и сильных страстей однажды толкнули его на связь с обычной женщиной Анной — женой Антуана Шаламова
Доп. информация: За предоставленный фильм благодарим - NickK88442200
Релиз
Сэмпл: https://yadi.sk/i/fRbcNI3a3MJ572
Качество видео: VHSRip
Формат видео: AVI
Видео: 704x528 (1.33:1), 25 fps, XviD build 73 ~1870 kbps avg, 0.20 bit/pixel
Аудио: 48 kHz, AC3 Dolby Digital, 2/0 (L,R) ch, ~192 kbps

MediaInfo

Безумной страстью ты сама ко мне пылаешь 1991.avi
Format : AVI
Format/Info : Audio Video Interleave
File size : 1.09 GiB
Duration : 1 h 15 min
Overall bit rate : 2 072 kb/s
Writing application : VirtualDubMod 1.5.10.3 | www.virtualdub-fr.org || (build 2550/release)
Writing library : VirtualDubMod build 2550/release
Video
ID : 0
Format : MPEG-4 Visual
Format profile : Advanced Simple@L5
Format settings, BVOP : 2
Format settings, QPel : No
Format settings, GMC : No warppoints
Format settings, Matrix : Custom
Codec ID : XVID
Codec ID/Hint : XviD
Duration : 1 h 15 min
Bit rate : 1 870 kb/s
Width : 704 pixels
Height : 528 pixels
Display aspect ratio : 4:3
Frame rate : 25.000 FPS
Color space : YUV
Chroma subsampling : 4:2:0
Bit depth : 8 bits
Scan type : Progressive
Compression mode : Lossy
Bits/(Pixel*Frame) : 0.201
Stream size : 1 005 MiB (90%)
Writing library : XviD 73
Audio
ID : 1
Format : AC-3
Format/Info : Audio Coding 3
Format settings, Endianness : Big
Codec ID : 2000
Duration : 1 h 15 min
Bit rate mode : Constant
Bit rate : 192 kb/s
Channel(s) : 2 channels
Channel positions : Front: L R
Sampling rate : 48.0 kHz
Frame rate : 31.250 FPS (1536 spf)
Bit depth : 16 bits
Compression mode : Lossy
Stream size : 103 MiB (9%)
Alignment : Split accross interleaves
Interleave, duration : 40 ms (1.00 video frame)
Interleave, preload duratio : 500 ms
Service kind : Complete Main

Скриншоты

[cybertorrent.ru].t357.torrent 
Торрент: Зарегистрирован [ 2018-02-15 15:48 ] · 85566420BB814F958D5DB7CA3C2F671AC3798916

Скачать .torrent

Скачать

11 KB

Статус: проверено
Скачан: 0 раз
Размер: 1,09 GB
Профиль [ЛС]
Показать сообщения:    

Текущее время: 27-Май 01:36

Часовой пояс: UTC ± 0



Вы не можете начинать темы
Вы не можете отвечать на сообщения
Вы не можете редактировать свои сообщения
Вы не можете удалять свои сообщения
Вы не можете голосовать в опросах
Вы не можете прикреплять файлы к сообщениям
Вы можете скачивать файлы