Статистика раздачи
Размер:  1,46 GB   |    Зарегистрирован:  7 месяцев 3 дня   |    Скачан:  0 раз

Полного источника не было: Никогда

   
 

Гость ®

Пол:
Не указан

КостюмерThe Dresser
Страна: Великобритания
Студия: British Broadcasting Corporation (BBC), Playground Entertainment, Sonia Friedman Productions
Жанр: драма
Год выпуска: 2015
Продолжительность: 01:49:17-Перевод: Профессиональный (дублированный) Кириллица*
Субтитры: нет
Оригинальная аудиодорожка: нет-Режиссер: Ричард Эйр / Richard Eyre
В ролях: Иэн МакКеллен, Энтони Хопкинс, Эмили Уотсон, Ванесса Кирби, Сара Ланкашир, Эдвард Фокс, Том Брук, Иэн Коннингхэм, Джон Эштон, Хелен Брэдбери-Описание: Население Великобритании, как и других европейских стран, живёт в постоянной тревоге из-за войны (1941-й год) невиданных масштабов, охватившей едва ли не весь континент. Но в то же время в Англии не прекращается и культурная жизнь, труппа актёров театра по-прежнему с энтузиазмом ставит пьесы величайшего драматурга Уильяма Шекспира. Измученные люди охотно приходят на спектакли для того, чтобы хотя бы на несколько часов позабыть обо всём происходящем вокруг, полностью погрузившись в мир героев, предстающих перед ними на сцене. Но у военной поры - свои законы, многие талантливые, востребованные актёры вынуждены оставить любимое дело и отправиться в армию. Однако мужчина солидного возраста - Сэр, посвятивший всю жизнь театру, не перестаёт исполнять свои роли. Он понимает, что играет уже далеко не так блестяще, как в молодости, но не желает расставаться со сценой. Справляться со всеми трудностями ему активно помогает его костюмер Норман, проработавший с этим актёром долгие годы. В ближайшее время должна состояться премьера спектакля «Король Лир», где Сэру положено играть одного из центральных персонажей. Пожилой актёр по-настоящему боится, что не сумеет справиться со своей задачей на достойном уровне, ведь в силу возраста, он то и дело забывает слова и ему всё тяжелее передвигаться. Однако его верный костюмер Норман готов сделать абсолютно всё для того, чтобы демонстрация знаменитой пьесы Шекспира состоялась, и Сэр выступил в этом спектакле наилучшим образом.

*Собственная запись со спутника Eutelsat 36A/36B (36°E) | Sony Turbo (эфир 30.01.2019г.)
Качество видео: WEB-DLRip FGT
Формат видео: AVI
Видео: MPEG-4 Visual / 720x400 (1,78:1) / 23,976 fps / XviD build 73 ~1717 kbps avg / 0.249 bit/pixel
Аудио: Russian | Dolby Digital Audio / 48 kHz / 2.0 Ch / 192 kbps / 16-bit | DUB | Кириллица*

MediaInfo исходника

Код:Общее
Уникальный идентификатор : 248786727077943230918304554589134555762 (0xBB2A94ABACC3FFA8A4B1F8DEDF6C8A72)
Полное имя : S:\WEB-DL_1080p\The.Dresser.2015.1080p.WEB-DL.DD5.1.H264-FGT.mkv
Формат : Matroska
Версия формата : Version 4
Размер файла : 4,00 Гбайт
Продолжительность : 1 ч. 49 м.
Общий поток : 5245 Кбит/сек
Название фильма : The.Dresser.2015.1080p.WEB-DL.DD5.1.H264-FGT
Дата кодирования : UTC 2016-09-02 05:37:32
Программа кодирования : mkvmerge v9.4.0 ('Knurl') 64bit
Библиотека кодирования : libebml v1.3.4 + libmatroska v1.4.5
Обложка : Yes
Attachments : small_cover.jpg / small_cover_land.jpg / cover.jpg / cover_land.jpg
Видео
Идентификатор : 1
Формат : AVC
Формат/Информация : Advanced Video Codec
Профиль формата : High@L4
Настройки формата : CABAC / 4 Ref Frames
Параметр CABAC формата : Да
Параметр RefFrames формата : 4 кадра
Идентификатор кодека : V_MPEG4/ISO/AVC
Продолжительность : 1 ч. 49 м.
Битрейт : 4757 Кбит/сек
Ширина : 1908 пикселей
Высота : 1068 пикселей
Соотношение сторон : 16:9
Режим частоты кадров : Постоянный
Частота кадров : 23,976 (24000/1001) кадра/сек
Цветовое пространство : YUV
Субдискретизация насыщенности : 4:2:0
Битовая глубина : 8 бит
Тип развёртки : Прогрессивная
Бит/(Пиксели*Кадры) : 0.097
Размер потока : 3,63 Гбайт (91%)
Заголовок : The.Dresser.2015.1080p.WEB-DL.DD5.1.H264-FGT
Язык : English
Default : Да
Forced : Нет
Цветовой диапазон : Limited
Основные цвета : BT.709
Характеристики трансфера : BT.709
Коэффициенты матрицы : BT.709
Аудио
Идентификатор : 2
Формат : AC-3
Формат/Информация : Audio Coding 3
Коммерческое название : Dolby Digital
Идентификатор кодека : A_AC3
Продолжительность : 1 ч. 49 м.
Вид битрейта : Постоянный
Битрейт : 384 Кбит/сек
Каналы : 6 каналов
Channel layout : L R C LFE Ls Rs
Частота : 48,0 КГц
Частота кадров : 31,250 кадров/сек (1536 SPF)
Битовая глубина : 16 бит
Метод сжатия : С потерями
Размер потока : 300 Мбайт (7%)
Заголовок : The.Dresser.2015.1080p.WEB-DL.DD5.1.H264-FGT
Язык : English
ServiceKind/String : Complete Main
Default : Да
Forced : Нет
Текст
Идентификатор : 3
Формат : UTF-8
Идентификатор кодека : S_TEXT/UTF8
Идентификатор кодека/Информация : UTF-8 Plain Text
Язык : English
Default : Да
Forced : Нет
Меню
00:00:00.000 : en:Main Titles
00:01:08.985 : en:A Slow Running Down
00:14:24.363 : en:Jumping On Our Hat
00:26:48.190 : en:Waxing Practical
00:32:58.351 : en:Transformation
00:37:27.745 : en:You Have To See The Actors
00:48:13.515 : en:The Show Goes On
00:58:26.586 : en:Mighty
01:12:35.184 : en:Awful Solitude
01:24:50.043 : en:Dead As Earth
01:34:16.609 : en:We All Have Our Little Sorrows
01:48:02.476 : en:End Credits

MediaInfo

Код:Общее
Полное имя : N:\WEB-DLRip\The Dresser.2015.WEB-DLRip.XviD.DUB.DD.2.0.avi
Формат : AVI
Формат/Информация : Audio Video Interleave
Размер файла : 1,46 Гбайт
Продолжительность : 1 ч. 49 м.
Общий поток : 1918 Кбит/сек
Программа кодирования : VirtualDubMod 1.5.10.3 | www.virtualdub-fr.org || (build 2550/release)
Библиотека кодирования : VirtualDubMod build 2550/release
Видео
Идентификатор : 0
Формат : MPEG-4 Visual
Профиль формата : Advanced Simple@L5
Настройки формата : BVOP1 / Custom Matrix
Параметр BVOP формата : 1
Параметр QPel формата : Нет
Параметр GMC формата : Без точки перехода
Параметр матрицы формата : Выборочная
Идентификатор кодека : XVID
Идентификатор кодека/Подсказка : XviD
Продолжительность : 1 ч. 49 м.
Битрейт : 1717 Кбит/сек
Ширина : 720 пикселей
Высота : 400 пикселей
Соотношение сторон : 16:9
Частота кадров : 23,976 (24000/1001) кадра/сек
Цветовое пространство : YUV
Субдискретизация насыщенности : 4:2:0
Битовая глубина : 8 бит
Тип развёртки : Прогрессивная
Метод сжатия : С потерями
Бит/(Пиксели*Кадры) : 0.249
Размер потока : 1,31 Гбайт (89%)
Библиотека кодирования : XviD 73
Аудио
Идентификатор : 1
Формат : AC-3
Формат/Информация : Audio Coding 3
Коммерческое название : Dolby Digital
Идентификатор кодека : 2000
Продолжительность : 1 ч. 49 м.
Вид битрейта : Постоянный
Битрейт : 192 Кбит/сек
Каналы : 2 канала
Channel layout : L R
Частота : 48,0 КГц
Частота кадров : 31,250 кадров/сек (1536 SPF)
Битовая глубина : 16 бит
Метод сжатия : С потерями
Размер потока : 150 Мбайт (10%)
Выравнивание : Разделение по промежуткам
Продолжительность промежутка : 42 мс. (1,00 видеокадр)
Время предзагрузки промежутка : 500 мс.
Заголовок : DUB | Кириллица
ServiceKind/String : Complete Main

Скриншоты




[cybertorrent.ru].t358.torrent 
Торрент: Зарегистрирован [ 2019-03-18 10:04 ] · E7924C41584A6D40A11D13BCA160388116474588

Скачать .torrent

Скачать

15 KB

Статус: проверено
Скачан: 0 раз
Размер: 1,46 GB
terms.php
Показать сообщения:    

Текущее время: 22-Окт 09:34

Часовой пояс: UTC ± 0



Вы не можете начинать темы
Вы не можете отвечать на сообщения
Вы не можете редактировать свои сообщения
Вы не можете удалять свои сообщения
Вы не можете голосовать в опросах
Вы не можете прикреплять файлы к сообщениям
Вы можете скачивать файлы