Статистика раздачи
Размер:  1,09 GB   |    Зарегистрирован:  3 месяца 12 дней   |    Скачан:  0 раз

Полного источника не было: Никогда

Личеров:  4  [  0 KB/s  ]  
 
   
 
 

lopster ®

Пол:
Не указан
Стаж:
3 месяца 12 дней
Сообщений:
612

Дружок-Страна: СССР
Студия: Киностудия им. М.Горького
Жанр: Детский, Приключения, Комедия
Год выпуска: 1958
Продолжительность: 01:03:11
Режиссёр: Виктор Эйсымонт
Сценарист: Николай Носов Оператор: Бенцион Монастырский
Композитор: Лев Шварц Художник: Константин Урбетис
В ролях: Витя Коваль, Толя Птичкин, Оля Эсальнек, Марина Орданская, Федор Никитин, Зоя Федорова, Агрий Аугшкап, Александра Попова
Описание: По рассказам Николая Носова "Мишкина каша" и "Дружок".
Веселые дачные приключения восьмилетних друзей Миши и Коли, а также их лохматого приятеля - верного и терпеливого пса по кличке Дружок.
-Качество видео: DVDRip с DVD: Дружок (Виктор Эйсымонт) [1958, детский, DVD5]
Формат видео: AVI
Видео: 688x512 (1.34:1), 25 fps, XviD MPEG-4 ~2266 kbps avg, 0.26 bit/pixel
Аудио: 48 kHz, AC3 Dolby Digital, 2/0 (L,R) ch, ~192.00 kbps avg
Сэмпл: http://multi-up.com/1166127

MediaInfo

Код:Общее
Полное имя : Дружок (Виктор Эйсымонт) [1958, детский, приключения, комедия, DVDRip].avi
Формат : AVI
Формат/Информация : Audio Video Interleave
Размер файла : 1,09 Гбайт
Продолжительность : 1 ч. 3 м.
Общий поток : 2469 Кбит/сек
Название фильма : Дружок
Режиссёр : Виктор Эйсымонт
Жанр : Child's
Программа кодирования : VirtualDubMod 1.5.10.2 (build 2540/release)
Формат оригинала/Имя : Movie
Правообладатель : СССР
Примечание : DVDRip by MonteKryu
Видео
Идентификатор : 0
Формат : MPEG-4 Visual
Профиль формата : Advanced Simple@L5
Параметр BVOP формата : 2
Параметр QPel формата : Нет
Параметр GMC формата : Без точки перехода
Параметр матрицы формата : Default (MPEG)
Идентификатор кодека : XVID
Идентификатор кодека/Подсказка : XviD
Продолжительность : 1 ч. 3 м.
Битрейт : 2267 Кбит/сек
Ширина : 688 пикселей
Высота : 512 пикселей
Соотношение сторон : 4:3
Частота кадров : 25,000 кадров/сек
Цветовое пространство : YUV
Субдискретизация насыщенности : 4:2:0
Битовая глубина : 8 бит
Тип развёртки : Прогрессивная
Метод сжатия : С потерями
Бит/(Пиксели*Кадры) : 0.257
Размер потока : 1,00 Гбайт (92%)
Библиотека кодирования : XviD 64
Аудио
Идентификатор : 1
Формат : AC-3
Формат/Информация : Audio Coding 3
Расширение режима : CM (complete main)
Параметр Endianness формата : Big
Идентификатор кодека : 2000
Продолжительность : 1 ч. 3 м.
Вид битрейта : Постоянный
Битрейт : 192 Кбит/сек
Каналы : 2 канала
Расположение каналов : Front: L R
Частота : 48,0 КГц
Битовая глубина : 16 бит
Метод сжатия : С потерями
Задержка видео : 8 мс.
Размер потока : 86,8 Мбайт (8%)
Выравнивание : Разделение по промежуткам
Продолжительность промежутка : 40 мс. (1,00 видеокадр)
Время предзагрузки промежутка : 500 мс.

Скриншоты

[cybertorrent.ru].t359.torrent 
Торрент: Зарегистрирован [ 2018-02-15 15:48 ] · 0C482B112BAD67C8A36FE3A8A5F98D80CB2F308A

Скачать .torrent

Скачать

11 KB

Статус: проверено
Скачан: 0 раз
Размер: 1,09 GB
Профиль [ЛС]
Показать сообщения:    

Текущее время: 28-Май 08:11

Часовой пояс: UTC ± 0



Вы не можете начинать темы
Вы не можете отвечать на сообщения
Вы не можете редактировать свои сообщения
Вы не можете удалять свои сообщения
Вы не можете голосовать в опросах
Вы не можете прикреплять файлы к сообщениям
Вы можете скачивать файлы