Статистика раздачи
Размер:  4,36 GB   |    Зарегистрирован:  3 месяца 12 дней   |    Скачан:  0 раз

Полного источника не было: Никогда

Личеров:  4  [  0 KB/s  ]  
 
   
 
 

lopster ®

Пол:
Не указан
Стаж:
3 месяца 12 дней
Сообщений:
612

Мушкетеры двадцать лет спустя
Год выпуска: 1992
Жанр: экранизация, приключения
Продолжительность: 01:02:17 + 01:12:16 + 01:14:07+ 01:33:41
Режиссер: Георгий Юнгвальд-Хилькевич
В ролях: Алиса Фрейндлих, Валентин Смирницкий, Вениамин Смехов, Игорь Старыгин, Михаил Боярский
Описание: В неспокойное для Франции и себя лично время кардинал Мазарини требует у королевы Анны поделиться с ним именами четверки друзей, которые с успехом помогали ей в борьбе против кардинала Ришелье. Королева называет имя д’Артаньяна, лейтенанта королевских мушкетеров. Мазарини вызывает его к себе и приказывает разыскать Атоса, Портоса и Арамиса, заодно попытавшись привлечь их к нему на службу. Но д’Артаньяну удается выполнить поручение лишь наполовину: в то время как Портос, далекий от политики, присоединяется к нему, Атос и Арамис оказываются по другую сторону баррикад — они всецело поддерживают враждебную кардиналу Фронду. Таким образом, бывшие друзья оказываются врагами и их пути пересекутся гораздо раньше, чем они могли бы предположить…
Качество: DVDRip
Формат: AVI
Видео кодек: XviD
Аудио кодек: AC3

Техданные

1 серия
Video: 704x528 (1.33:1), 25 fps, XviD build 73 ~2304 kbps avg, 0.25 bit/pixel
Audio: 48 kHz, AC3 Dolby Digital, 2/0 (L,R) ch, ~192.00 kbps avg
2 серия
Video: 704x528 (1.33:1), 25 fps, XviD build 73 ~1958 kbps avg, 0.21 bit/pixel
Audio: 48 kHz, AC3 Dolby Digital, 2/0 (L,R) ch, ~192.00 kbps avg
3 серия
Video: 704x528 (1.33:1), 25 fps, XviD build 73 ~1905 kbps avg, 0.21 bit/pixel
Audio: 48 kHz, AC3 Dolby Digital, 2/0 (L,R) ch, ~192.00 kbps avg
4 серия
Video: 704x528 (1.33:1), 25 fps, XviD build 73 ~1467 kbps avg, 0.16 bit/pixel
Audio: 48 kHz, AC3 Dolby Digital, 2/0 (L,R) ch, ~192.00 kbps avg

Скриншоты

Медиаинфо

Медиаинфо 1 серии

F:\004 Мои раздачи\Мушкетеры 20 лет спустя 4х1,09\mushketery_20_let_spustay_1.09_by_bm11_part1.avi
General
Complete name : F:\004 Мои раздачи\Мушкетеры 20 лет спустя 4х1,09\mushketery_20_let_spustay_1.09_by_bm11_part1.avi
Format : AVI
Format/Info : Audio Video Interleave
File size : 1.09 GiB
Duration : 1h 2mn
Overall bit rate : 2 506 Kbps
Writing application : VirtualDubMod 1.5.10.3 | www.virtualdub-fr.org || (build 2550/release)
Writing library : VirtualDubMod build 2550/release
Video
Format : MPEG-4 Visual
Format profile : Streaming Video@L1
Format settings, BVOP : Yes
Format settings, QPel : No
Format settings, GMC : No warppoints
Format settings, Matrix : Custom
Codec ID : XVID
Codec ID/Hint : XviD
Duration : 1h 2mn
Bit rate : 2 304 Kbps
Width : 704 pixels
Height : 528 pixels
Display aspect ratio : 4/3
Frame rate : 25.000 fps
Resolution : 24 bits
Colorimetry : 4:2:0
Scan type : Progressive
Bits/(Pixel*Frame) : 0.248
Stream size : 1.00 GiB (92%)
Writing library : XviD 73
Audio
Format : AC-3
Format/Info : Audio Coding 3
Codec ID : 2000
Duration : 1h 2mn
Bit rate mode : Constant
Bit rate : 192 Kbps
Channel(s) : 2 channels
Channel positions : L R
Sampling rate : 48.0 KHz
Stream size : 85.5 MiB (8%)
Alignment : Split accross interleaves
Interleave, duration : 40 ms (1.00 video frame)
Interleave, preload duration : 500 ms

Медиаинфо 2 серии

F:\004 Мои раздачи\Мушкетеры 20 лет спустя 4х1,09\mushketery_20_let_spustay_1.09_by_bm11_part2.avi
General
Complete name : F:\004 Мои раздачи\Мушкетеры 20 лет спустя 4х1,09\mushketery_20_let_spustay_1.09_by_bm11_part2.avi
Format : AVI
Format/Info : Audio Video Interleave
File size : 1.09 GiB
Duration : 1h 12mn
Overall bit rate : 2 160 Kbps
Writing application : VirtualDubMod 1.5.10.3 | www.virtualdub-fr.org || (build 2550/release)
Writing library : VirtualDubMod build 2550/release
Video
Format : MPEG-4 Visual
Format profile : Streaming Video@L1
Format settings, BVOP : Yes
Format settings, QPel : No
Format settings, GMC : No warppoints
Format settings, Matrix : Custom
Codec ID : XVID
Codec ID/Hint : XviD
Duration : 1h 12mn
Bit rate : 1 959 Kbps
Width : 704 pixels
Height : 528 pixels
Display aspect ratio : 4/3
Frame rate : 25.000 fps
Resolution : 24 bits
Colorimetry : 4:2:0
Scan type : Progressive
Bits/(Pixel*Frame) : 0.211
Stream size : 1 013 MiB (91%)
Writing library : XviD 73
Audio
Format : AC-3
Format/Info : Audio Coding 3
Codec ID : 2000
Duration : 1h 12mn
Bit rate mode : Constant
Bit rate : 192 Kbps
Channel(s) : 2 channels
Channel positions : L R
Sampling rate : 48.0 KHz
Stream size : 99.3 MiB (9%)
Alignment : Split accross interleaves
Interleave, duration : 40 ms (1.00 video frame)
Interleave, preload duration : 500 ms

Медиаинфо 3 серии

F:\004 Мои раздачи\Мушкетеры 20 лет спустя 4х1,09\mushketery_20_let_spustay_1.09_by_bm11_part3.avi
General
Complete name : F:\004 Мои раздачи\Мушкетеры 20 лет спустя 4х1,09\mushketery_20_let_spustay_1.09_by_bm11_part3.avi
Format : AVI
Format/Info : Audio Video Interleave
File size : 1.09 GiB
Duration : 1h 14mn
Overall bit rate : 2 107 Kbps
Writing application : VirtualDubMod 1.5.10.3 | www.virtualdub-fr.org || (build 2550/release)
Writing library : VirtualDubMod build 2550/release
Video
Format : MPEG-4 Visual
Format profile : Streaming Video@L1
Format settings, BVOP : Yes
Format settings, QPel : No
Format settings, GMC : No warppoints
Format settings, Matrix : Custom
Codec ID : XVID
Codec ID/Hint : XviD
Duration : 1h 14mn
Bit rate : 1 905 Kbps
Width : 704 pixels
Height : 528 pixels
Display aspect ratio : 4/3
Frame rate : 25.000 fps
Resolution : 24 bits
Colorimetry : 4:2:0
Scan type : Progressive
Bits/(Pixel*Frame) : 0.205
Stream size : 1 010 MiB (90%)
Writing library : XviD 73
Audio
Format : AC-3
Format/Info : Audio Coding 3
Codec ID : 2000
Duration : 1h 14mn
Bit rate mode : Constant
Bit rate : 192 Kbps
Channel(s) : 2 channels
Channel positions : L R
Sampling rate : 48.0 KHz
Stream size : 102 MiB (9%)
Alignment : Split accross interleaves
Interleave, duration : 40 ms (1.00 video frame)
Interleave, preload duration : 500 ms

Медиаинфо 4 серии

F:\004 Мои раздачи\Мушкетеры 20 лет спустя 4х1,09\mushketery_20_let_spustay_1.09_by_bm11_part4.avi
General
Complete name : F:\004 Мои раздачи\Мушкетеры 20 лет спустя 4х1,09\mushketery_20_let_spustay_1.09_by_bm11_part4.avi
Format : AVI
Format/Info : Audio Video Interleave
File size : 1.09 GiB
Duration : 1h 33mn
Overall bit rate : 1 669 Kbps
Writing application : VirtualDubMod 1.5.10.3 | www.virtualdub-fr.org || (build 2550/release)
Writing library : VirtualDubMod build 2550/release
Video
Format : MPEG-4 Visual
Format profile : Streaming Video@L1
Format settings, BVOP : Yes
Format settings, QPel : No
Format settings, GMC : No warppoints
Format settings, Matrix : Custom
Codec ID : XVID
Codec ID/Hint : XviD
Duration : 1h 33mn
Bit rate : 1 468 Kbps
Width : 704 pixels
Height : 528 pixels
Display aspect ratio : 4/3
Frame rate : 25.000 fps
Resolution : 24 bits
Colorimetry : 4:2:0
Scan type : Progressive
Bits/(Pixel*Frame) : 0.158
Stream size : 984 MiB (88%)
Writing library : XviD 73
Audio
Format : AC-3
Format/Info : Audio Coding 3
Codec ID : 2000
Duration : 1h 33mn
Bit rate mode : Constant
Bit rate : 192 Kbps
Channel(s) : 2 channels
Channel positions : L R
Sampling rate : 48.0 KHz
Stream size : 129 MiB (12%)
Alignment : Split accross interleaves
Interleave, duration : 40 ms (1.00 video frame)
Interleave, preload duration : 500 ms

Сравнение

http://cybertorrent.ru/viewtopic.php?t=541405
http://screenshotcomparison.com/comparison/116460/picture:3
плюс в старой раздаче апскейл и файлы не в размер
[cybertorrent.ru].t362.torrent 
Торрент: Зарегистрирован [ 2018-02-15 15:48 ] · 93E2036D43F606187A59DFE70C705CA105535900

Скачать .torrent

Скачать

23 KB

Статус: проверено
Скачан: 0 раз
Размер: 4,36 GB
Профиль [ЛС]
Показать сообщения:    

Текущее время: 28-Май 03:03

Часовой пояс: UTC ± 0



Вы не можете начинать темы
Вы не можете отвечать на сообщения
Вы не можете редактировать свои сообщения
Вы не можете удалять свои сообщения
Вы не можете голосовать в опросах
Вы не можете прикреплять файлы к сообщениям
Вы можете скачивать файлы