Статистика раздачи
Размер:  2,9 GB   |    Зарегистрирован:  3 месяца 12 дней   |    Скачан:  0 раз

Полного источника не было: Никогда

Личеров:  4  [  0 KB/s  ]  
 
   
 
 

lopster ®

Пол:
Не указан
Стаж:
3 месяца 12 дней
Сообщений:
612

Мушкетеры двадцать лет спустя
Год выпуска: 1992
Жанр: экранизация, приключения
Продолжительность: 01:02:17 + 01:12:16 + 01:14:07+ 01:33:41
Режиссер: Георгий Юнгвальд-Хилькевич
В ролях: Алиса Фрейндлих, Валентин Смирницкий, Вениамин Смехов, Игорь Старыгин, Михаил Боярский
Описание: В неспокойное для Франции и себя лично время кардинал Мазарини требует у королевы Анны поделиться с ним именами четверки друзей, которые с успехом помогали ей в борьбе против кардинала Ришелье. Королева называет имя д’Артаньяна, лейтенанта королевских мушкетеров. Мазарини вызывает его к себе и приказывает разыскать Атоса, Портоса и Арамиса, заодно попытавшись привлечь их к нему на службу. Но д’Артаньяну удается выполнить поручение лишь наполовину: в то время как Портос, далекий от политики, присоединяется к нему, Атос и Арамис оказываются по другую сторону баррикад — они всецело поддерживают враждебную кардиналу Фронду. Таким образом, бывшие друзья оказываются врагами и их пути пересекутся гораздо раньше, чем они могли бы предположить…
Качество: DVDRip
Формат: AVI
Видео кодек: XviD
Аудио кодек: МР3

Техданные

1 серия
Video: 640x480 (1.33:1), 25 fps, XviD build 73 ~1525 kbps avg, 0.20 bit/pixel
Audio: 48 kHz, MPEG Layer 3, 2 ch, ~128.00 kbps avg
2 серия
Video: 640x480 (1.33:1), 25 fps, XviD build 73 ~1298 kbps avg, 0.17 bit/pixel
Audio: 48 kHz, MPEG Layer 3, 2 ch, ~128.00 kbps avg
3 серия
Video: 640x480 (1.33:1), 25 fps, XviD build 73 ~1263 kbps avg, 0.16 bit/pixel
Audio: 48 kHz, MPEG Layer 3, 2 ch, ~128.00 kbps avg
4 серия
Video: 640x480 (1.33:1), 25 fps, XviD build 73 ~973 kbps avg, 0.13 bit/pixel
Audio: 48 kHz, MPEG Layer 3, 2 ch, ~128.00 kbps avg

Скриншоты

Медиаинфо

Медиаинфо 1 серии

F:\004 Мои раздачи\Мушкетеры 20 лет спустя 4х745\mushketery_20_let_spustay_745_by_bm11_part1.avi
General
Complete name : F:\004 Мои раздачи\Мушкетеры 20 лет спустя 4х745\mushketery_20_let_spustay_745_by_bm11_part1.avi
Format : AVI
Format/Info : Audio Video Interleave
File size : 741 MiB
Duration : 1h 2mn
Overall bit rate : 1 663 Kbps
Writing application : VirtualDubMod 1.5.10.3 | www.virtualdub-fr.org || (build 2550/release)
Writing library : VirtualDubMod build 2550/release
Video
Format : MPEG-4 Visual
Format profile : Streaming Video@L1
Format settings, BVOP : Yes
Format settings, QPel : No
Format settings, GMC : No warppoints
Format settings, Matrix : Custom
Codec ID : XVID
Codec ID/Hint : XviD
Duration : 1h 2mn
Bit rate : 1 526 Kbps
Width : 640 pixels
Height : 480 pixels
Display aspect ratio : 4/3
Frame rate : 25.000 fps
Resolution : 24 bits
Colorimetry : 4:2:0
Scan type : Progressive
Bits/(Pixel*Frame) : 0.199
Stream size : 680 MiB (92%)
Writing library : XviD 73
Audio
Format : MPEG Audio
Format version : Version 1
Format profile : Layer 3
Codec ID : 55
Codec ID/Hint : MP3
Duration : 1h 2mn
Bit rate mode : Constant
Bit rate : 128 Kbps
Minimum bit rate : 128 Kbps
Channel(s) : 2 channels
Sampling rate : 48.0 KHz
Resolution : 16 bits
Stream size : 57.0 MiB (8%)
Alignment : Aligned on interleaves
Interleave, duration : 40 ms (1.00 video frame)
Interleave, preload duration : 504 ms
Writing library : LAME3.99r
Encoding settings : CBR

Медиаинфо 2 серии

F:\004 Мои раздачи\Мушкетеры 20 лет спустя 4х745\mushketery_20_let_spustay_745_by_bm11_part2.avi
General
Complete name : F:\004 Мои раздачи\Мушкетеры 20 лет спустя 4х745\mushketery_20_let_spustay_745_by_bm11_part2.avi
Format : AVI
Format/Info : Audio Video Interleave
File size : 743 MiB
Duration : 1h 12mn
Overall bit rate : 1 437 Kbps
Writing application : VirtualDubMod 1.5.10.3 | www.virtualdub-fr.org || (build 2550/release)
Writing library : VirtualDubMod build 2550/release
Video
Format : MPEG-4 Visual
Format profile : Streaming Video@L1
Format settings, BVOP : Yes
Format settings, QPel : No
Format settings, GMC : No warppoints
Format settings, Matrix : Custom
Codec ID : XVID
Codec ID/Hint : XviD
Duration : 1h 12mn
Bit rate : 1 299 Kbps
Width : 640 pixels
Height : 480 pixels
Display aspect ratio : 4/3
Frame rate : 25.000 fps
Resolution : 24 bits
Colorimetry : 4:2:0
Scan type : Progressive
Bits/(Pixel*Frame) : 0.169
Stream size : 672 MiB (90%)
Writing library : XviD 73
Audio
Format : MPEG Audio
Format version : Version 1
Format profile : Layer 3
Codec ID : 55
Codec ID/Hint : MP3
Duration : 1h 12mn
Bit rate mode : Constant
Bit rate : 128 Kbps
Minimum bit rate : 128 Kbps
Channel(s) : 2 channels
Sampling rate : 48.0 KHz
Resolution : 16 bits
Stream size : 66.2 MiB (9%)
Alignment : Aligned on interleaves
Interleave, duration : 40 ms (1.00 video frame)
Interleave, preload duration : 504 ms
Writing library : LAME3.99r
Encoding settings : CBR

Медиаинфо 3 серии

F:\004 Мои раздачи\Мушкетеры 20 лет спустя 4х745\mushketery_20_let_spustay_745_by_bm11_part3.avi
General
Complete name : F:\004 Мои раздачи\Мушкетеры 20 лет спустя 4х745\mushketery_20_let_spustay_745_by_bm11_part3.avi
Format : AVI
Format/Info : Audio Video Interleave
File size : 743 MiB
Duration : 1h 14mn
Overall bit rate : 1 402 Kbps
Writing application : VirtualDubMod 1.5.10.3 | www.virtualdub-fr.org || (build 2550/release)
Writing library : VirtualDubMod build 2550/release
Video
Format : MPEG-4 Visual
Format profile : Streaming Video@L1
Format settings, BVOP : Yes
Format settings, QPel : No
Format settings, GMC : No warppoints
Format settings, Matrix : Custom
Codec ID : XVID
Codec ID/Hint : XviD
Duration : 1h 14mn
Bit rate : 1 264 Kbps
Width : 640 pixels
Height : 480 pixels
Display aspect ratio : 4/3
Frame rate : 25.000 fps
Resolution : 24 bits
Colorimetry : 4:2:0
Scan type : Progressive
Bits/(Pixel*Frame) : 0.165
Stream size : 670 MiB (90%)
Writing library : XviD 73
Audio
Format : MPEG Audio
Format version : Version 1
Format profile : Layer 3
Codec ID : 55
Codec ID/Hint : MP3
Duration : 1h 14mn
Bit rate mode : Constant
Bit rate : 128 Kbps
Minimum bit rate : 128 Kbps
Channel(s) : 2 channels
Sampling rate : 48.0 KHz
Resolution : 16 bits
Stream size : 67.9 MiB (9%)
Alignment : Aligned on interleaves
Interleave, duration : 40 ms (1.00 video frame)
Interleave, preload duration : 504 ms
Writing library : LAME3.99r
Encoding settings : CBR

Медиаинфо 4 серии

F:\004 Мои раздачи\Мушкетеры 20 лет спустя 4х745\mushketery_20_let_spustay_745_by_bm11_part4.avi
General
Complete name : F:\004 Мои раздачи\Мушкетеры 20 лет спустя 4х745\mushketery_20_let_spustay_745_by_bm11_part4.avi
Format : AVI
Format/Info : Audio Video Interleave
File size : 745 MiB
Duration : 1h 33mn
Overall bit rate : 1 111 Kbps
Writing application : VirtualDubMod 1.5.10.3 | www.virtualdub-fr.org || (build 2550/release)
Writing library : VirtualDubMod build 2550/release
Video
Format : MPEG-4 Visual
Format profile : Streaming Video@L1
Format settings, BVOP : Yes
Format settings, QPel : No
Format settings, GMC : No warppoints
Format settings, Matrix : Custom
Codec ID : XVID
Codec ID/Hint : XviD
Duration : 1h 33mn
Bit rate : 973 Kbps
Width : 640 pixels
Height : 480 pixels
Display aspect ratio : 4/3
Frame rate : 25.000 fps
Resolution : 24 bits
Colorimetry : 4:2:0
Scan type : Progressive
Bits/(Pixel*Frame) : 0.127
Stream size : 652 MiB (88%)
Writing library : XviD 73
Audio
Format : MPEG Audio
Format version : Version 1
Format profile : Layer 3
Codec ID : 55
Codec ID/Hint : MP3
Duration : 1h 33mn
Bit rate mode : Constant
Bit rate : 128 Kbps
Minimum bit rate : 128 Kbps
Channel(s) : 2 channels
Sampling rate : 48.0 KHz
Resolution : 16 bits
Stream size : 85.8 MiB (12%)
Alignment : Aligned on interleaves
Interleave, duration : 40 ms (1.00 video frame)
Interleave, preload duration : 504 ms
Writing library : LAME3.99r
Encoding settings : CBR

Сравнение

http://cybertorrent.ru/viewtopic.php?t=574095
http://screenshotcomparison.com/comparison/116468/picture:0
плюс в старой раздаче : Режим смешивания : Сжатый битовый поток
[cybertorrent.ru].t363.torrent 
Торрент: Зарегистрирован [ 2018-02-15 15:48 ] · 1186D005C232325BADDB257E4E6804E0BB1DD225

Скачать .torrent

Скачать

15 KB

Статус: проверено
Скачан: 0 раз
Размер: 2,9 GB
Профиль [ЛС]
Показать сообщения:    

Текущее время: 28-Май 03:03

Часовой пояс: UTC ± 0



Вы не можете начинать темы
Вы не можете отвечать на сообщения
Вы не можете редактировать свои сообщения
Вы не можете удалять свои сообщения
Вы не можете голосовать в опросах
Вы не можете прикреплять файлы к сообщениям
Вы можете скачивать файлы