Статистика раздачи
Размер:  156 MB   |    Зарегистрирован:  4 месяца 17 дней   |    Скачан:  0 раз

Полного источника не было: Никогда

 
   
 
 

soda ®

Пол:
Не указан
Стаж:
5 месяцев 6 дней
Сообщений:
205

Твой брат Валентин
Жанр: драма, короткометражный
Год выпуска: 1981
Продолжительность: 00:25:30
Режиссёр: Мартирос Фаносян
В ролях: Анатолий Ромашин, Светлана Немоляева, Андрей Николаев, Олег Васюхин, Юрий Васюхин, Анна Исайкина, Елена Санько, Леонид Иудов
Описание: Фильм снят по мотивам рассказа Константина Ваншенкина "Там, где Семеновский полк".
В основе сюжета - один день жизни профессора Суханова. Читая лекцию студентам, он цитирует стихи Пушкина, Дельвига, мысли и настроение которых возвращают его к воспоминаниям о жизни и погибшем в годы войны брате-близнеце Валентине.

Доп. информация: Исходник http://cybertorrent.ru/viewtopic.php?t=4341855
Семпл: https://www.sendspace.com/file/ewe64l
Качество видео: SATRip
Формат видео: MKV
Видео: 720x528 (4:3), 4:2:0, 25,000 fps, AVC ~808 Kbps avg, ~ 0.085/pixel
Аудио: 48.0 kHz, AAC, 2/0 (L,R) ch, ~48 kbps

MediaInfo

Твой брат Валентин (СССР.1981) SATrip.короткометражный.mkv
Format : Matroska
Format version : Version 4 / Version 2
File size : 156 MiB
Duration : 25 min 30 s
Overall bit rate : 854 kb/s
Encoded date : UTC 2018-03-01 14:17:07
Writing application : mkvmerge v21.0.0 ('Tardigrades Will Inherit The Earth') 64-bit
Writing library : libebml v1.3.5 + libmatroska v1.4.8
Video
ID : 1
Format : AVC
Format/Info : Advanced Video Codec
Format profile : High@L4.1
Format settings : CABAC / 16 Ref Frames
Format settings, CABAC : Yes
Format settings, ReFrames : 16 frames
Codec ID : V_MPEG4/ISO/AVC
Duration : 25 min 29 s
Bit rate : 808 kb/s
Width : 720 pixels
Height : 528 pixels
Display aspect ratio : 4:3
Frame rate mode : Constant
Frame rate : 25.000 FPS
Color space : YUV
Chroma subsampling : 4:2:0
Bit depth : 8 bits
Scan type : Progressive
Bits/(Pixel*Frame) : 0.085
Stream size : 147 MiB (95%)
Writing library : x264 core 152 r2851 ba24899
Encoding settings : cabac=1 / ref=16 / deblock=1:-3:-3 / analyse=0x3:0x133 / me=umh / subme=10 / psy=1 / psy_rd=1.05:0.10 / mixed_ref=1 / me_range=32 / chroma_me=1 / trellis=2 / 8x8dct=1 / cqm=0 / deadzone=21,11 / fast_pskip=0 / chroma_qp_offset=-3 / threads=12 / lookahead_threads=3 / sliced_threads=0 / nr=0 / decimate=0 / interlaced=0 / bluray_compat=0 / constrained_intra=0 / bframes=14 / b_pyramid=2 / b_adapt=2 / b_bias=0 / direct=3 / weightb=1 / open_gop=0 / weightp=2 / keyint=250 / keyint_min=25 / scenecut=40 / intra_refresh=0 / rc_lookahead=60 / rc=2pass / mbtree=1 / bitrate=808 / ratetol=1.0 / qcomp=0.80 / qpmin=0 / qpmax=69 / qpstep=4 / cplxblur=20.0 / qblur=0.5 / vbv_maxrate=62500 / vbv_bufsize=78125 / nal_hrd=none / filler=0 / ip_ratio=1.40 / aq=1:1.00
Default : Yes
Forced : No
Audio
ID : 2
Format : AAC
Format/Info : Advanced Audio Codec
Format profile : HE-AAC / LC
Format settings : Explicit
Codec ID : A_AAC-2
Duration : 25 min 29 s
Bit rate : 44.9 kb/s
Channel(s) : 2 channels
Channel positions : Front: L R
Sampling rate : 48.0 kHz / 24.0 kHz
Frame rate : 23.438 FPS (1024 SPF)
Compression mode : Lossy
Delay relative to video : 203 ms
Stream size : 8.18 MiB (5%)
Default : Yes
Forced : No
[cybertorrent.ru].t36348.torrent 
Торрент: Зарегистрирован [ 2018-03-03 17:45 ] · 0184A574F3ACC0F186D36D47D84A7A389414761E

Скачать .torrent

Скачать

13 KB

Статус: проверено
Скачан: 0 раз
Размер: 156 MB
Профиль [ЛС]
Показать сообщения:    

Текущее время: 21-Июл 15:20

Часовой пояс: UTC ± 0



Вы не можете начинать темы
Вы не можете отвечать на сообщения
Вы не можете редактировать свои сообщения
Вы не можете удалять свои сообщения
Вы не можете голосовать в опросах
Вы не можете прикреплять файлы к сообщениям
Вы можете скачивать файлы