Статистика раздачи
Размер:  2,44 GB   |    Зарегистрирован:  3 месяца 10 дней   |    Скачан:  0 раз

Полного источника не было: Никогда

Личеров:  5  [  0 KB/s  ]  
 
   
 
 

lopster ®

Пол:
Не указан
Стаж:
3 месяца 11 дней
Сообщений:
612

Плачу вперед!
Жанр: трагифарс
Год выпуска: 1999
Продолжительность: 01:38:57-Режиссёр: Виктор Титов
В ролях: Михаил Боярский, Наталья Данилова, Лариса Луппиан, Ксения Раппопорт, Наталья Белошапкина, В. Рудь, Я. Бухтояров, А. Шилинскас-Описание: Сегодня у знаменитого актера Михаила Распятова очень сильно болит голова. И это не только результат бурного банкета по поводу аншлага на новом спектакле. Сегодня в одной квартире столкнулись три женщины, имеющие определенные планы на его дальнейшую судьбу, и бедняге придется сделать выбор. К молодой любовнице его влекут страсть и склонность к авантюрам. К немолодой жене — привычка и двадцать лет приятных воспоминаний. К богатой продюссерше — безоблачное будущее и безграничная любовь. Согласится ли жена за 100 000$ отступных на время развестись с мужем, который и так ей изменяет? Примет ли мужчина миллион из рук влюбленной женщины, чтобы ровно год принадлежать ей безраздельно? Сумеет ли юная красотка одной лишь пылкостью склонить чашу весов на свою сторону?-Доп. информация: Без рекламных вставок
Есть два баннера (смотрим 4 скрин)
Первая звуковая дорожка взята отсюда, так как лучше
Спасибо Cheef mate
Синхронизирована без пережатия
За запись фильма спасибо miha2154
За помощь в создании релиза спасибо pzagor
Сэмпл: минута55сек-Качество видео: DVB
Формат видео: MKV
Видео: AVC, 720х576, 4:3, 25,000 кадров/сек, 3340 Кбит/сек
Аудио: MP2, 48,0 КГц, 192 Кбит/сек, 2 канала (телеканал Москва Доверие)

Сравнение с Москва Доверие

Cheef mate
4 скрина

MediaInfo

Общее
Уникальный идентификатор : 218631513201792077113133653832038091967 (0xA47AE5D6A095BA2C958109F116C40CBF)
Полное имя : Плачу вперёд!1999.mkv
Формат : Matroska
Версия формата : Version 4 / Version 2
Размер файла : 2,44 Гбайт
Продолжительность : 1 ч. 38 м.
Общий поток : 3536 Кбит/сек
Название фильма : Плачу вперёд! / 1999 / DVB / 23.07.2017
Дата кодирования : UTC 2017-09-10 11:57:04
Программа кодирования : mkvmerge v8.3.0 ('Over the Horizon') 32bit
Библиотека кодирования : libebml v1.3.1 + libmatroska v1.4.2
Видео
Идентификатор : 1
Формат : AVC
Формат/Информация : Advanced Video Codec
Профиль формата : High@L3
Параметр CABAC формата : Да
Параметр RefFrames формата : 4 кадра
Идентификатор кодека : V_MPEG4/ISO/AVC
Продолжительность : 1 ч. 38 м.
Битрейт : 3340 Кбит/сек
Ширина : 720 пикселей
Высота : 576 пикселей
Соотношение сторон : 4:3
Соотношение сторон в оригинале : 4:3
Режим частоты кадров : Переменный
Частота кадров : 50,000 кадров/сек
Частота кадров в оригинале : 25,000 кадров/сек
Стандарт вещания : Component
Цветовое пространство : YUV
Субдискретизация насыщенности : 4:2:0
Битовая глубина : 8 бит
Тип развёртки : Чересстрочная
Метод сохранения типа развёртки : Раздельные поля
Порядок развёртки : Верхнее поле первое
Бит/(Пиксели*Кадры) : 0.161
Размер потока : 2,31 Гбайт (94%)
Заголовок : Плачу вперёд! / 1999 / DVB / 23.07.2017
Язык : Russian
Default : Да
Forced : Нет
Цветовой диапазон : Limited
Основные цвета : BT.601 PAL
Характеристики трансфера : BT.470 System B, BT.470 System G
Коэффициенты матрицы : BT.470 System B, BT.470 System G
Аудио
Идентификатор : 2
Формат : MPEG Audio
Версия формата : Version 1
Профиль формата : Layer 2
Идентификатор кодека : A_MPEG/L2
Идентификатор кодека/Подсказка : MP2
Продолжительность : 1 ч. 38 м.
Вид битрейта : Постоянный
Битрейт : 192 Кбит/сек
Каналы : 2 канала
Частота : 48,0 КГц
Частота кадров : 41,667 кадра/сек (1152 SPF)
Метод сжатия : С потерями
Размер потока : 136 Мбайт (5%)
Заголовок : телеканал Москва Доверие
Язык : Russian
Default : Да
Forced : Нет
[cybertorrent.ru].t364.torrent 
Торрент: Зарегистрирован [ 2018-02-15 15:48 ] · BB7893B159E455E04BCF84B0A7B1DD68DEF65F59

Скачать .torrent

Скачать

13 KB

Статус: проверено
Скачан: 0 раз
Размер: 2,44 GB
Профиль [ЛС]
Показать сообщения:    

Текущее время: 26-Май 15:40

Часовой пояс: UTC ± 0



Вы не можете начинать темы
Вы не можете отвечать на сообщения
Вы не можете редактировать свои сообщения
Вы не можете удалять свои сообщения
Вы не можете голосовать в опросах
Вы не можете прикреплять файлы к сообщениям
Вы можете скачивать файлы