Статистика раздачи
Размер:  1,53 GB   |    Зарегистрирован:  7 месяцев 3 дня   |    Скачан:  0 раз

Полного источника не было: Никогда

   
 

serzh ®

Пол:
Не указан
Стаж:
7 месяцев 9 дней
Сообщений:
384

Мечты на задворках / Трущобные мечты / Backstreet Dreams
Страна: США
Жанр: драма
Год выпуска: 1990
Продолжительность: 01:40:29
Перевод: Авторский (одноголосый закадровый) Андрей Дольский
Субтитры: нет
Оригинальная аудиодорожка: английский отдельным файлом
Режиссер: Руперт Хитциг / Rupert Hitzig, Джейсон О’Мэлли / Jason O'Malley
В ролях: Брук Шилдс, Джейсон О’Мэлли, Энтони Франчоза, Берт Янг, Джон Вицци, Джозеф Вицци, Шерилин Фенн, Тони Филдс, Ник Кассаветис, Рэй «Бум Бум» Манчини...
Описание: Герой этой криминальной мелодрамы работает вышибалой в баре и сборщиком дани для мафии. Живет он в бедном районе, супруга изменяет ему с другим мафиози да еще и его маленький сын болеющий аутизмом. От деградации под влиянием беспросветной жизни героя спасла любовь к прекрасной девушке — врачу, которая работает над диссертацией по аутизму и взялась за лечение мальчика.
Доп. информация: Перевод с раздачи edich2. Оцифровка перевода Дольского - alenavova. Синхронизация звука - Dreven.
Сэмпл: http://sendfile.su/1478849
Качество видео: LDRip-AVC
Формат видео: MKV
Видео: 704x480 (4:3) @ 704x528, 23.976 fps, AVC, ~1800 Kbps, 0.222 bits/pixel
Аудио 1: Russian, 48.0 KHz, AC3, 2 ch, 192 Kbps - Андрей Дольский
Аудио 2: English, 48.0 KHz, AC3, 2 ch, 192 Kbps отдельным файлом

MediaInfo

General
Unique ID : 117601199009064338083292723938029729877 (0x58792AC4E2C859B20E9DBDCC442FF855)
Complete name : C:\Backstreet Dreams\Backstreet Dreams.mkv
Format : Matroska
Format version : Version 4 / Version 2
File size : 1.40 GiB
Duration : 1 h 40 min
Overall bit rate : 1 995 kb/s
Encoded date : UTC 2019-03-01 12:50:30
Writing application : mkvmerge v30.1.0 ('Forever And More') 64-bit
Writing library : libebml v1.3.6 + libmatroska v1.4.9
Video
ID : 1
Format : AVC
Format/Info : Advanced Video Codec
Format profile : High@L3.1
Format settings : CABAC / 10 Ref Frames
Format settings, CABAC : Yes
Format settings, ReFrames : 10 frames
Codec ID : V_MPEG4/ISO/AVC
Duration : 1 h 40 min
Bit rate : 1 800 kb/s
Width : 704 pixels
Height : 480 pixels
Display aspect ratio : 4:3
Frame rate mode : Constant
Frame rate : 23.976 (24000/1001) FPS
Color space : YUV
Chroma subsampling : 4:2:0
Bit depth : 8 bits
Scan type : Progressive
Bits/(Pixel*Frame) : 0.222
Stream size : 1.26 GiB (90%)
Writing library : x264 core 146 r2538 121396c
Encoding settings : cabac=1 / ref=10 / deblock=1:-3:-3 / analyse=0x3:0x113 / me=umh / subme=9 / psy=1 / psy_rd=1.00:0.15 / mixed_ref=1 / me_range=33 / chroma_me=1 / trellis=2 / 8x8dct=1 / cqm=0 / deadzone=21,11 / fast_pskip=0 / chroma_qp_offset=-3 / threads=12 / lookahead_threads=1 / sliced_threads=0 / nr=0 / decimate=0 / interlaced=0 / bluray_compat=0 / constrained_intra=0 / bframes=5 / b_pyramid=2 / b_adapt=2 / b_bias=0 / direct=3 / weightb=1 / open_gop=0 / weightp=2 / keyint=240 / keyint_min=23 / scenecut=40 / intra_refresh=0 / rc_lookahead=61 / rc=2pass / mbtree=1 / bitrate=1800 / ratetol=3.0 / qcomp=0.60 / qpmin=0 / qpmax=69 / qpstep=4 / cplxblur=20.0 / qblur=0.5 / vbv_maxrate=14000 / vbv_bufsize=14000 / nal_hrd=none / filler=0 / ip_ratio=1.40 / aq=1:1.00
Language : English
Default : Yes
Forced : No
Audio
ID : 2
Format : AC-3
Format/Info : Audio Coding 3
Commercial name : Dolby Digital
Codec ID : A_AC3
Duration : 1 h 40 min
Bit rate mode : Constant
Bit rate : 192 kb/s
Channel(s) : 2 channels
Channel layout : L R
Sampling rate : 48.0 kHz
Frame rate : 31.250 FPS (1536 SPF)
Bit depth : 16 bits
Compression mode : Lossy
Stream size : 138 MiB (10%)
Title : Андрей Дольский
Language : Russian
Service kind : Complete Main
Default : Yes
Forced : No

Скриншоты

[cybertorrent.ru].t364.torrent 
Торрент: Зарегистрирован [ 2019-03-18 10:04 ] · 917B949B0CCA6F72A8619C0BF5EF03F4131474DA

Скачать .torrent

Скачать

16 KB

Статус: проверено
Скачан: 0 раз
Размер: 1,53 GB
terms.php
Профиль ЛС
Показать сообщения:    

Текущее время: 22-Окт 08:30

Часовой пояс: UTC ± 0



Вы не можете начинать темы
Вы не можете отвечать на сообщения
Вы не можете редактировать свои сообщения
Вы не можете удалять свои сообщения
Вы не можете голосовать в опросах
Вы не можете прикреплять файлы к сообщениям
Вы можете скачивать файлы