Статистика раздачи
Размер:  1,46 GB   |    Зарегистрирован:  3 месяца 9 дней   |    Скачан:  0 раз

Полного источника не было: Никогда

 
   
 
 

lopster ®

Пол:
Не указан
Стаж:
3 месяца 9 дней
Сообщений:
612

Графомафия
Выпущено: Студия Крылья
Жанр: комедия
Год выпуска: 2017
Продолжительность: 01:33:35
Субтитры: нет-Режиссер: Владимир Зайкин, Эдуард Радзюкевич-В ролях: Гоша Куценко, Даниил Спиваковский, Станислав Дужников, Эдуард Радзюкевич, Юрий Стоянов, Дарья Екамасова, Маргарита Шубина, Аристарх Венес, Дарья Мороз, Владимир Епифанцев-Описание: Успешный издатель Надежда Павловна нанимает мечтающих о славе графоманов, чтобы убить талантливого писателя и присвоить его роман, который принесет славу ее обожаемому сыну. Но Шурок равнодушен и к славе, и к литературе. Он любит дорогие машины и красивых девушек. Банда графоманов с энтузиазмом берется за дело. Ведь цена успеха — издание их творений. Но, оказывается, применять кровавые методы в жизни намного сложнее, чем в написании триллера. У каждого свое представление об успехе и счастье. Для одних это встреча с возлюбленным, для других — популярность в соцсетях, а для кого-то предел мечтаний увидеть свое имя на книжной обложке.-Качество видео: WEB-DLRip
Формат видео: AVI
Видео: 720x304 (2.37:1), 25 fps, XviD build 73 ~1834 kbps avg, 0.34 bit/pixel
Аудио: 48 kHz, AC3 Dolby Digital, 3/2 (L,C,R,l,r) + LFE ch, ~384 kbps-Скачать сэмпл-

MediaInfo

Код:Format : AVI
Format/Info : Audio Video Interleave
File size : 1.46 GiB
Duration : 1 h 33 min
Overall bit rate : 2 228 kb/s
Writing application : VirtualDubMod 1.5.10.3 | www.virtualdub-fr.org || (build 2550/release)
Writing library : VirtualDubMod build 2550/release
Video
ID : 0
Format : MPEG-4 Visual
Format profile : Advanced Simple@L5
Format settings, BVOP : 1
Format settings, QPel : No
Format settings, GMC : No warppoints
Format settings, Matrix : Custom
Codec ID : XVID
Codec ID/Hint : XviD
Duration : 1 h 33 min
Bit rate : 1 835 kb/s
Width : 720 pixels
Height : 304 pixels
Display aspect ratio : 2.35:1
Frame rate : 25.000 FPS
Color space : YUV
Chroma subsampling : 4:2:0
Bit depth : 8 bits
Scan type : Progressive
Compression mode : Lossy
Bits/(Pixel*Frame) : 0.335
Stream size : 1.20 GiB (82%)
Writing library : XviD 73
Audio
ID : 1
Format : AC-3
Format/Info : Audio Coding 3
Format settings, Endianness : Big
Codec ID : 2000
Duration : 1 h 33 min
Bit rate mode : Constant
Bit rate : 384 kb/s
Channel(s) : 6 channels
Channel positions : Front: L C R, Side: L R, LFE
Sampling rate : 48.0 kHz
Frame rate : 31.250 FPS (1536 spf)
Bit depth : 16 bits
Compression mode : Lossy
Stream size : 257 MiB (17%)
Alignment : Split accross interleaves
Interleave, duration : 40 ms (1.00 video frame)
Interleave, preload duratio : 500 ms
Service kind : Complete Main

Скриншоты

[cybertorrent.ru].t366.torrent 
Торрент: Зарегистрирован [ 2018-02-15 15:48 ] · A2A44DC1B7B816660AFD300D9EC02507F76CCFC0

Скачать .torrent

Скачать

15 KB

Статус: проверено
Скачан: 0 раз
Размер: 1,46 GB
Профиль [ЛС]
Показать сообщения:    

Текущее время: 25-Май 09:09

Часовой пояс: UTC ± 0



Вы не можете начинать темы
Вы не можете отвечать на сообщения
Вы не можете редактировать свои сообщения
Вы не можете удалять свои сообщения
Вы не можете голосовать в опросах
Вы не можете прикреплять файлы к сообщениям
Вы можете скачивать файлы