Статистика раздачи
Размер:  3,32 GB   |    Зарегистрирован:  3 месяца 12 дней   |    Скачан:  0 раз

Полного источника не было: Никогда

Личеров:  4  [  0 KB/s  ]  
 
   
 
 

lopster ®

Пол:
Не указан
Стаж:
3 месяца 12 дней
Сообщений:
612

Тайна королевы Анны, или Мушкетеры 30 лет спустя. 2 серии / Песни в исполнении И. Наджиева
Жанр: приключения
Год выпуска: 1993
Продолжительность: 01:16:07
Режиссёр: Георгий Юнгвальд-Хилькевич
В ролях: Михаил Боярский, Алиса Фрейндлих, Дмитрий Харатьян, Анатолий Равикович, Вениамин Смехов, Валентин Смирнитский, Игорь Старыгин, Владимир Лаптев, Арунас Сторпирстис, Андрей Соколов, Алексей Ясулович, Юрий Дубровин, Павел Винник, Екатерина Стриженова, Юри Ярвет, Анатолий Столбов, Яна Поплавская, Алла Будницкая...
Описание: Когда-то гасконец Д`Артаньян познакомился с тремя мушкетерами — Атосом, Портосом и Арамисом, и они стали неразлучными друзьями. Время идет. Прошло тридцать лет с тех времен…
По мотивам романа Александра Дюма "Виконт де Бражелон или Десять лет спустя". Ну о-о-о-очень по мотивам.
Доп. информация: Оцифровка VHS с записью эфира 1-го канала Останкино. Из личной коллекции.
Запись сделана в период с 1 апреля 1993 по 31 марта 1995, точнее уже не вспомню.
Оцифровка производилась с помощью сего девайса, который работает без участия компьютера (сам он+видеомагнитофон+флэшка) и не имеет никаких настроек кодирования. Все претензии к IconBITу.
Сэмпл: http://sendfile.su/1360522
Качество видео: TVRip-AVC
Формат видео: MP4
Видео: AVC, 720х576, 5:4, 25,000 кадров/сек, 3000 Кбит/сек
Аудио: AAC, 48,0 КГц, 192 Кбит/сек, 2 канала (псевдостерео)

MediaInfo

General
Complete name : K:\torrents\Мушкетеры 30 лет спустя. 1 серия\1-я серия.mp4
Format : MPEG-4
Format profile : Base Media
Codec ID : isom (isom/iso2/avc1/mp41)
File size : 1.70 GiB
Duration : 1 h 16 min
Overall bit rate : 3 196 kb/s
Writing application : Lavf57.25.100
Video
ID : 1
Format : AVC
Format/Info : Advanced Video Codec
Format profile : Baseline@L3
Format settings, CABAC : No
Format settings, RefFrames : 1 frame
Format settings, GOP : M=1, N=50
Codec ID : avc1
Codec ID/Info : Advanced Video Coding
Duration : 1 h 16 min
Bit rate : 3 000 kb/s
Width : 720 pixels
Height : 576 pixels
Display aspect ratio : 5:4
Frame rate mode : Constant
Frame rate : 25.000 FPS
Standard : PAL
Color space : YUV
Chroma subsampling : 4:2:0
Bit depth : 8 bits
Scan type : Progressive
Bits/(Pixel*Frame) : 0.289
Stream size : 1.60 GiB (94%)
Language : English
Audio
ID : 2
Format : AAC
Format/Info : Advanced Audio Codec
Format profile : LC
Codec ID : 40
Duration : 1 h 16 min
Bit rate mode : Constant
Bit rate : 192 kb/s
Channel(s) : 2 channels
Channel positions : Front: L R
Sampling rate : 48.0 kHz
Frame rate : 46.875 FPS (1024 SPF)
Compression mode : Lossy
Stream size : 103 MiB (6%)
Language : English
Default : Yes
Alternate group : 1

Скриншот c названием фильма

Скриншоты 1-й серии

[cybertorrent.ru].t367.torrent 
Торрент: Зарегистрирован [ 2018-02-15 15:48 ] · D77F3A3D98CBDABADFC16F04DB72FCC21BDA9898

Скачать .torrent

Скачать

17 KB

Статус: проверено
Скачан: 0 раз
Размер: 3,32 GB
Профиль [ЛС]
Показать сообщения:    

Текущее время: 28-Май 08:04

Часовой пояс: UTC ± 0



Вы не можете начинать темы
Вы не можете отвечать на сообщения
Вы не можете редактировать свои сообщения
Вы не можете удалять свои сообщения
Вы не можете голосовать в опросах
Вы не можете прикреплять файлы к сообщениям
Вы можете скачивать файлы