Статистика раздачи
Размер:  1,46 GB   |    Зарегистрирован:  3 месяца 9 дней   |    Скачан:  0 раз
Сидов:  9  [  0 KB/s  ]  
 
   
 
 

lopster ®

Пол:
Не указан
Стаж:
3 месяца 9 дней
Сообщений:
612

А в России опять окаянные дни
Жанр: драма
Год выпуска: 1990
Продолжительность: 02:02:31
Режиссёр: Владимир Васильков
В ролях: Татьяна Ипатова — Сашка Бурдина
Евгений Белоногов — Вадим Воинов
Михаил Боровков — Виктор Бурдин
Михаил Иванов — Бурдин в старости
Галина Доля — Роза
Геннадий Венгеров — Бабаханов
Сергей Малёнов — "Одесса"
Юрий Митрофанов — начальник тройки ОСО
Сергей Друзьяк, Николай Волошин, Надежда Евдокимова , Сергей Чернов, Ируте Венгалите, Виктор Саракваша, Иван Морозов, Леонид Трушко, Виктор Евграфов, Сергей Белякович, Ольга Прокофьева, Михаил Левкоев, Алексей Аблепихин, Анатолий Мамбетов
Описание: Виктор Бурдин родился в одном из сталинских лагерей. Теперь он живёт в столице, но, попав на Урал к деду, узнаёт, что тот служил начальником как раз того самого лагеря, где и родился Виктор. Мать Виктора, вопреки воле отца-начальника, связала свою судьбу с политзаключенным. И теперь Бурдин-младший пытается узнать правду о гибели посмертно реабилитированного отца...
Доп. информация: Оцифровка VHS (личный архив) и получение VHSRip alenavova
Эксклюзив для rutracker.org. При размещении данного релиза на других сайтах ссылка на автора alenavova обязательна.
Релиз
Сэмпл: https://yadi.sk/i/iTbPxtRG3MjcMr
Качество видео: VHSRip
Формат видео: AVI
Видео: 704x528 (1.33:1), 25 fps, XviD build 73 ~1509 kbps avg, 0.16 bit/pixel
Аудио: 48 kHz, AC3 Dolby Digital, 2/0 (L,R) ch, ~192 kbps

MediaInfo

А в России опять окоянные дни [by alenavova].avi
Format : AVI
Format/Info : Audio Video Interleave
File size : 1.46 GiB
Duration : 2 h 2 min
Overall bit rate : 1 711 kb/s
Movie name : А в России опять окоянные дни [by alenavova]
Director : by alenavova
Writing application : VirtualDubMod 1.5.10.3 | www.virtualdub-fr.org || (build 2550/release)
Copyright : Edich2
Comment : RuTracker.org
Video
ID : 0
Format : MPEG-4 Visual
Format profile : Advanced Simple@L5
Format settings, BVOP : 2
Format settings, QPel : No
Format settings, GMC : No warppoints
Format settings, Matrix : Custom
Codec ID : XVID
Codec ID/Hint : XviD
Duration : 2 h 2 min
Bit rate : 1 509 kb/s
Width : 704 pixels
Height : 528 pixels
Display aspect ratio : 4:3
Frame rate : 25.000 FPS
Color space : YUV
Chroma subsampling : 4:2:0
Bit depth : 8 bits
Scan type : Progressive
Compression mode : Lossy
Bits/(Pixel*Frame) : 0.162
Stream size : 1.29 GiB (88%)
Writing library : XviD 73
Audio
ID : 1
Format : AC-3
Format/Info : Audio Coding 3
Format settings, Endianness : Big
Codec ID : 2000
Duration : 2 h 2 min
Bit rate mode : Constant
Bit rate : 192 kb/s
Channel(s) : 2 channels
Channel positions : Front: L R
Sampling rate : 48.0 kHz
Frame rate : 31.250 FPS (1536 spf)
Bit depth : 16 bits
Compression mode : Lossy
Stream size : 168 MiB (11%)
Alignment : Split accross interleaves
Interleave, duration : 40 ms (1.00 video frame)
Interleave, preload duratio : 500 ms
Service kind : Complete Main

Скриншоты


[cybertorrent.ru].t368.torrent 
Торрент: Зарегистрирован [ 2018-02-15 15:48 ] · A91A9B97CAA5D2F798041A89E9DFCC1D2F95A83C

Скачать .torrent

Скачать

15 KB

Статус: проверено
Скачан: 0 раз
Размер: 1,46 GB
Профиль [ЛС]
Показать сообщения:    

Текущее время: 25-Май 08:49

Часовой пояс: UTC ± 0



Вы не можете начинать темы
Вы не можете отвечать на сообщения
Вы не можете редактировать свои сообщения
Вы не можете удалять свои сообщения
Вы не можете голосовать в опросах
Вы не можете прикреплять файлы к сообщениям
Вы можете скачивать файлы