Статистика раздачи
Размер:  1,46 GB   |    Зарегистрирован:  3 месяца 7 дней   |    Скачан:  0 раз

Полного источника не было: Никогда

Личеров:  3  [  0 KB/s  ]  
 
   
 
 

lopster ®

Пол:
Не указан
Стаж:
3 месяца 7 дней
Сообщений:
612

Преступление не будет раскрыто
Жанр: драма, мелодрама, криминал
Год выпуска: 1992
Продолжительность: 01:05:13
Режиссёр: Валентина Переверзева
В ролях: Алексей Волков
Марина Опенкина
Владислав Демченко
Геннадий Сайфулин
Валерий Беляев
Екатерина Гольтянина
Елена Борзунова
Антон Голышев
Валентина Титова
Вадим Захарченко
Описание: Обычная история — любовный треугольник. Здесь любят, ненавидят, ревнуют, душат, травят друг друга… Однако следователь ведет дело так, чтобы преступление не было раскрыто…
Доп. информация: Оцифровал фильм с VHS и лично передал для релиза на трекере NorZanzibar
Релиз
Сэмпл: https://yadi.sk/i/BJrsPpf13MkiWW
Качество видео: VHSRip
Формат видео: AVI
Видео: 720x544 (1.32:1), 25 fps, XviD MPEG-4 ~3065 kbps avg, 0.31 bit/pixel
Аудио: 48 kHz, MPEG Layer 3, 2 ch, ~128.00 kbps avg

MediaInfo

Преступление не будет раскрыто [by NorZanzibar].avi
Format : AVI
Format/Info : Audio Video Interleave
File size : 1.46 GiB
Duration : 1 h 5 min
Overall bit rate : 3 200 kb/s
Movie name : 1992 - Преступление не будет раскрыто
Director : by NorZanzibar
Writing application : VirtualDubMod 1.5.4.1 (build 2178/release)
Copyright : Edich2
Comment : RuTracker.org
Video
ID : 0
Format : MPEG-4 Visual
Format profile : Advanced Simple@L5
Format settings, BVOP : 1
Format settings, QPel : No
Format settings, GMC : No warppoints
Format settings, Matrix : Custom
Codec ID : XVID
Codec ID/Hint : XviD
Duration : 1 h 5 min
Bit rate : 3 065 kb/s
Width : 720 pixels
Height : 544 pixels
Display aspect ratio : 4:3
Frame rate : 25.000 FPS
Color space : YUV
Chroma subsampling : 4:2:0
Bit depth : 8 bits
Scan type : Progressive
Compression mode : Lossy
Bits/(Pixel*Frame) : 0.313
Stream size : 1.40 GiB (96%)
Writing library : XviD 73
Audio
ID : 1
Format : MPEG Audio
Format version : Version 1
Format profile : Layer 3
Mode : Joint stereo
Codec ID : 55
Codec ID/Hint : MP3
Duration : 1 h 5 min
Bit rate mode : Constant
Bit rate : 128 kb/s
Channel(s) : 2 channels
Sampling rate : 48.0 kHz
Compression mode : Lossy
Stream size : 59.7 MiB (4%)
Alignment : Aligned on interleaves
Interleave, duration : 80 ms (2.00 video frames)
Interleave, preload duratio : 504 ms
Writing library : LAME3.97
Encoding settings : -m j -V 4 -q 2 -lowpass 17 -b 128

Скриншоты

[cybertorrent.ru].t370.torrent 
Торрент: Зарегистрирован [ 2018-02-15 15:48 ] · FDBC6479CAEDC24FB4CDA9B4F779958CE8D876CA

Скачать .torrent

Скачать

15 KB

Статус: проверено
Скачан: 0 раз
Размер: 1,46 GB
Профиль [ЛС]
Показать сообщения:    

Текущее время: 23-Май 07:25

Часовой пояс: UTC ± 0



Вы не можете начинать темы
Вы не можете отвечать на сообщения
Вы не можете редактировать свои сообщения
Вы не можете удалять свои сообщения
Вы не можете голосовать в опросах
Вы не можете прикреплять файлы к сообщениям
Вы можете скачивать файлы