Статистика раздачи
Размер:  2,19 GB   |    Зарегистрирован:  3 месяца 10 дней   |    Скачан:  0 раз

Полного источника не было: Никогда

 
   
 
 

lopster ®

Пол:
Не указан
Стаж:
3 месяца 11 дней
Сообщений:
612

Брат 2
Жанр: Драма, криминал, боевик
Год выпуска: 2000
Продолжительность: 02:02:40
Режиссёр: Алексей Балабанов
В ролях: Сергей Бодров мл., Виктор Сухоруков, Сергей Маковецкий, Ирина Салтыкова, Кирилл Пирогов, Александр Дьяченко, Дарья Юргенс, Александр Наумов, Александр Карамнов, Гэри Хьюстон
Описание: Участвуя в программе на телевидении, Данила Багров встречает своих друзей по Чечне. Одного из них внезапно убивают. Данила знает, что у того были неприятности из-за брата-хоккеиста в Америке. Данила должен разобраться. Он вылетает в Америку и для компании берёт с собой брата. Теперь его фотография ходит по рукам русской и американской мафии. Новоявленные «Аль Капоне» понимают, что нарвались на профессионала…

Качество видео: WEB-DLRip-AVC [BRAT2_WEB-DL_1080p-BLUEBIRD]
Формат видео: MKV
Видео: AVC, 2110 kbps, 16:9, 25 fps, 1024x576
Аудио: AC3, 48 KHz, 448 kbps, 5.1 channels
Субтитры: русские
Навигация по главам: есть (20 глав)
Брат (первая часть)

MediaInfo

General
Unique ID : 228893030530822125465660240195146800182 (0xAC3331B436944FA29506F99720ECDC36)
Complete name : E:\My Films\Нео-нуар (нуар)\Брат (1-2)\Брат-2_2000_Sub_Rus.WEB-DLRip-AVC_by_Indigo-child.mkv
Format : Matroska
Format version : Version 4 / Version 2
File size : 2.19 GiB
Duration : 2h 2mn
Overall bit rate : 2 560 Kbps
Movie name : BRAT2_WEB-DL_1080p-BLUEBIRD
Encoded date : UTC 2017-09-12 07:47:07
Writing application : mkvmerge v9.8.0 ('Kuglblids') 32bit
Writing library : libebml v1.3.4 + libmatroska v1.4.5
DURATION : 02:02:40.320000000
NUMBER_OF_FRAMES : 230010
NUMBER_OF_BYTES : 412177920
_STATISTICS_WRITING_APP : mkvmerge v9.8.0 ('Kuglblids') 32bit
_STATISTICS_WRITING_DATE_UT : 2017-09-12 07:47:07
_STATISTICS_TAGS : BPS DURATION NUMBER_OF_FRAMES NUMBER_OF_BYTES
Video
ID : 1
Format : AVC
Format/Info : Advanced Video Codec
Format profile : High@L4.1
Format settings, CABAC : Yes
Format settings, ReFrames : 12 frames
Codec ID : V_MPEG4/ISO/AVC
Duration : 2h 2mn
Bit rate : 2 110 Kbps
Width : 1 024 pixels
Height : 576 pixels
Display aspect ratio : 16:9
Frame rate mode : Constant
Frame rate : 25.000 fps
Color space : YUV
Chroma subsampling : 4:2:0
Bit depth : 8 bits
Scan type : Progressive
Bits/(Pixel*Frame) : 0.143
Stream size : 1.77 GiB (81%)
Title : BRAT2_WEB-DL_1080p-BLUEBIRD
Writing library : x264 core 152 r2851M ba24899
Encoding settings : cabac=1 / ref=12 / deblock=1:-2:-1 / analyse=0x3:0x133 / me=umh / subme=11 / psy=1 / psy_rd=1.00:0.20 / mixed_ref=1 / me_range=32 / chroma_me=1 / trellis=2 / 8x8dct=1 / cqm=0 / deadzone=21,11 / fast_pskip=1 / chroma_qp_offset=-3 / threads=3 / lookahead_threads=1 / sliced_threads=0 / nr=0 / decimate=1 / interlaced=0 / bluray_compat=0 / constrained_intra=0 / bframes=12 / b_pyramid=2 / b_adapt=2 / b_bias=0 / direct=3 / weightb=1 / open_gop=0 / weightp=2 / keyint=250 / keyint_min=25 / scenecut=40 / intra_refresh=0 / rc_lookahead=60 / rc=2pass / mbtree=1 / bitrate=2110 / ratetol=1.0 / qcomp=0.60 / qpmin=0 / qpmax=69 / qpstep=4 / cplxblur=20.0 / qblur=0.5 / ip_ratio=1.40 / aq=1:1.00
Language : Russian
Default : Yes
Forced : No
Color range : Limited
Color primaries : BT.709
Transfer characteristics : BT.709
Matrix coefficients : BT.709
DURATION : 02:02:40.440000000
NUMBER_OF_FRAMES : 184011
NUMBER_OF_BYTES : 1941210943
_STATISTICS_WRITING_APP : mkvmerge v9.8.0 ('Kuglblids') 32bit
_STATISTICS_WRITING_DATE_UT : 2017-09-12 07:47:07
_STATISTICS_TAGS : BPS DURATION NUMBER_OF_FRAMES NUMBER_OF_BYTES
Audio
ID : 3
Format : AC-3
Format/Info : Audio Coding 3
Mode extension : CM (complete main)
Format settings, Endianness : Big
Codec ID : A_AC3
Duration : 2h 2mn
Bit rate mode : Constant
Bit rate : 448 Kbps
Channel(s) : 6 channels
Channel positions : Front: L C R, Side: L R, LFE
Sampling rate : 48.0 KHz
Compression mode : Lossy
Stream size : 393 MiB (18%)
Language : Russian
Default : Yes
Forced : No
DURATION : 01:58:48.720000000
NUMBER_OF_FRAMES : 971
NUMBER_OF_BYTES : 58550
_STATISTICS_WRITING_APP : mkvmerge v9.8.0 ('Kuglblids') 32bit
_STATISTICS_WRITING_DATE_UT : 2017-09-12 07:47:07
_STATISTICS_TAGS : BPS DURATION NUMBER_OF_FRAMES NUMBER_OF_BYTES
Text
ID : 2
Format : UTF-8
Codec ID : S_TEXT/UTF8
Codec ID/Info : UTF-8 Plain Text
Title : [Full-length]
Language : Russian
Default : Yes
Forced : No
Menu
00:00:00.000 : :Глава 1
00:07:38.000 : :Глава 2
00:13:07.000 : :Глава 3
00:18:14.000 : :Глава 4
00:24:38.000 : :Глава 5
00:31:27.000 : :Глава 6
00:38:10.000 : :Глава 7
00:44:05.000 : :Глава 8
00:51:29.000 : :Глава 9
00:57:08.000 : :Глава 10
01:02:41.000 : :Глава 11
01:08:01.000 : :Глава 12
01:14:26.000 : :Глава 13
01:22:00.000 : :Глава 14
01:28:24.000 : :Глава 15
01:33:59.000 : :Глава 16
01:39:27.000 : :Глава 17
01:45:27.000 : :Глава 18
01:52:06.000 : :Глава 19
01:56:34.000 : :Глава 20

Сравнение с исходником

Сравнение с XVID

XVID----------------------------------------------------------------------------------------------------------AVC
[cybertorrent.ru].t372.torrent 
Торрент: Зарегистрирован [ 2018-02-15 15:48 ] · 29622AE78C62BAF5D9B9226D8FC96959BE6B6DB7

Скачать .torrent

Скачать

11 KB

Статус: проверено
Скачан: 0 раз
Размер: 2,19 GB
Профиль [ЛС]
Показать сообщения:    

Текущее время: 26-Май 15:46

Часовой пояс: UTC ± 0



Вы не можете начинать темы
Вы не можете отвечать на сообщения
Вы не можете редактировать свои сообщения
Вы не можете удалять свои сообщения
Вы не можете голосовать в опросах
Вы не можете прикреплять файлы к сообщениям
Вы можете скачивать файлы