Статистика раздачи
Размер:  2,19 GB   |    Зарегистрирован:  6 месяцев 29 дней   |    Скачан:  0 раз

Полного источника не было: Никогда

   
 

serzh ®

Пол:
Не указан
Стаж:
7 месяцев 4 дня
Сообщений:
384

Обнаженная месть / Naked Vengeance / Unrated
Страна: США, Филиппины
Жанр: боевик, драма, криминал
Год выпуска: 1985
Продолжительность: 01:37:25
Перевод: Профессиональный (двухголосый закадровый) НТВ+
Субтитры: русские (на пропуски в переводе), английские
Оригинальная аудиодорожка: английский
Режиссер: Сирио Х. Сантьяго / Cirio H. Santiago
В ролях: Дебора Трэнелли, Каз Гарас, Кармен Ардженциано, Билл МакЛафлин, Эд Крик, Джордж Е. Малберг, Ник Николсон, Дон Гордон Белл, Дэвид Лайт, Терренс О’Хара...
Описание: История о женщине, хладнокровно и жестоко мстящей негодяям, изнасиловавшим ее и убившим всю ее семью.
Доп. информация: Перевод с раздачи Igor2138. Перевод делался под сокращенную версию, пропуски компенсированы субтитрами. Синхронизация звука - Dreven.
Сэмпл: http://sendfile.su/1479119
Качество видео: HDRip-AVC Исходник Naked.Vengeance.1985.1080p.BluRay.x264-SADPANDA
Формат видео: MKV
Видео: 1120x604 (1.85:1), 23.976 fps, AVC, ~2840 Kbps, 0.175 bits/pixel
Аудио 1: Russian, 48.0 KHz, AC3, 2 ch, 192 Kbps - НТВ+
Аудио 2: English, 48.0 KHz, AC3, 2 ch, 192 Kbps

Log

avs4x26x.exe: -L x264_64.exe --pass 2 --bitrate 2840 --preset medium --tune film --level 4.1 --ref 9 --merange 32 --bframes 10 --direct auto --b-adapt 2 --trellis 2 --no-fast-pskip --no-dct-decimate --psy-rd 1.00:0.20 --subme 10 --me umh --no-mbtree --vbv-bufsize 62500 --vbv-maxrate 50000 --partitions p8x8,b8x8,i4x4,i8x8 --sar 1:1 --stats
raw [info]: 1120x604p 1:1 @ 24000/1001 fps (cfr)
x264 [info]: using SAR=1/1
x264 [info]: using cpu capabilities: MMX2 SSE2Fast LZCNT
x264 [info]: profile High, level 4.1, 4:2:0, 8-bit
x264 [info]: frame I:998 Avg QP:18.18 size:100858
x264 [info]: frame P:31199 Avg QP:20.82 size: 29226
x264 [info]: frame B:107931 Avg QP:22.04 size: 9828
x264 [info]: consecutive B-frames: 1.7% 2.5% 7.7% 30.7% 14.7% 35.3% 3.9% 2.6% 0.3% 0.3% 0.4%
x264 [info]: mb I I16..4: 18.4% 65.7% 15.9%
x264 [info]: mb P I16..4: 1.0% 13.9% 1.0% P16..4: 43.6% 26.3% 11.9% 0.0% 0.0% skip: 2.3%
x264 [info]: mb B I16..4: 0.1% 0.9% 0.1% B16..8: 44.1% 10.1% 2.3% direct: 7.0% skip:35.5% L0:44.6% L1:48.0% BI: 7.3%
x264 [info]: 8x8 transform intra:84.6% inter:67.7%
x264 [info]: direct mvs spatial:99.1% temporal:0.9%
x264 [info]: coded y,uvDC,uvAC intra: 93.2% 85.7% 52.1% inter: 29.4% 30.6% 7.2%
x264 [info]: i16 v,h,dc,p: 19% 12% 30% 40%
x264 [info]: i8 v,h,dc,ddl,ddr,vr,hd,vl,hu: 9% 8% 7% 10% 14% 14% 14% 12% 13%
x264 [info]: i4 v,h,dc,ddl,ddr,vr,hd,vl,hu: 10% 7% 3% 9% 15% 16% 15% 12% 13%
x264 [info]: i8c dc,h,v,p: 41% 23% 19% 17%
x264 [info]: Weighted P-Frames: Y:4.6% UV:1.7%
x264 [info]: ref P L0: 45.3% 12.4% 18.2% 5.9% 5.8% 3.7% 4.0% 2.1% 2.5% 0.1% 0.0%
x264 [info]: ref B L0: 75.7% 11.0% 5.2% 2.8% 2.0% 1.8% 1.1% 0.5%
x264 [info]: ref B L1: 95.0% 5.0%
x264 [info]: kb/s:2837.87
x264 [total]: encoded 140128 frames, 6.42 fps, 2837.87 kb/s

MediaInfo

General
Unique ID : 318619775291376976535448000421826379806 (0xEFB3EFC5B9053D40D8EDAB4C162BC01E)
Complete name : D:\Naked Vengeance [Unrated].mkv
Format : Matroska
Format version : Version 4 / Version 2
File size : 2.19 GiB
Duration : 1 h 37 min
Overall bit rate : 3 224 kb/s
Encoded date : UTC 2019-03-02 16:24:45
Writing application : mkvmerge v30.1.0 ('Forever And More') 64-bit
Writing library : libebml v1.3.6 + libmatroska v1.4.9
Video
ID : 1
Format : AVC
Format/Info : Advanced Video Codec
Format profile : High@L4.1
Format settings : CABAC / 9 Ref Frames
Format settings, CABAC : Yes
Format settings, ReFrames : 9 frames
Codec ID : V_MPEG4/ISO/AVC
Duration : 1 h 37 min
Bit rate : 2 840 kb/s
Width : 1 120 pixels
Height : 604 pixels
Display aspect ratio : 1.85:1
Frame rate mode : Constant
Frame rate : 23.976 (24000/1001) FPS
Color space : YUV
Chroma subsampling : 4:2:0
Bit depth : 8 bits
Scan type : Progressive
Bits/(Pixel*Frame) : 0.175
Stream size : 1.93 GiB (88%)
Writing library : x264 core 157 r2935 545de2f
Encoding settings : cabac=1 / ref=9 / deblock=1:-1:-1 / analyse=0x3:0x113 / me=umh / subme=10 / psy=1 / psy_rd=1.00:0.20 / mixed_ref=1 / me_range=32 / chroma_me=1 / trellis=2 / 8x8dct=1 / cqm=0 / deadzone=21,11 / fast_pskip=0 / chroma_qp_offset=-3 / threads=6 / lookahead_threads=1 / sliced_threads=0 / nr=0 / decimate=0 / interlaced=0 / bluray_compat=0 / constrained_intra=0 / bframes=10 / b_pyramid=2 / b_adapt=2 / b_bias=0 / direct=3 / weightb=1 / open_gop=0 / weightp=2 / keyint=250 / keyint_min=23 / scenecut=40 / intra_refresh=0 / rc_lookahead=40 / rc=2pass / mbtree=0 / bitrate=2840 / ratetol=1.0 / qcomp=0.60 / qpmin=0 / qpmax=69 / qpstep=4 / cplxblur=20.0 / qblur=0.5 / vbv_maxrate=50000 / vbv_bufsize=62500 / nal_hrd=none / filler=0 / ip_ratio=1.40 / pb_ratio=1.30 / aq=1:1.00
Language : English
Default : Yes
Forced : No
Audio #1
ID : 2
Format : AC-3
Format/Info : Audio Coding 3
Commercial name : Dolby Digital
Codec ID : A_AC3
Duration : 1 h 37 min
Bit rate mode : Constant
Bit rate : 192 kb/s
Channel(s) : 2 channels
Channel layout : L R
Sampling rate : 48.0 kHz
Frame rate : 31.250 FPS (1536 SPF)
Bit depth : 16 bits
Compression mode : Lossy
Stream size : 134 MiB (6%)
Title : НТВ+
Language : Russian
Service kind : Complete Main
Default : Yes
Forced : No
Audio #2
ID : 3
Format : AC-3
Format/Info : Audio Coding 3
Commercial name : Dolby Digital
Codec ID : A_AC3
Duration : 1 h 37 min
Bit rate mode : Constant
Bit rate : 192 kb/s
Channel(s) : 2 channels
Channel layout : L R
Sampling rate : 48.0 kHz
Frame rate : 31.250 FPS (1536 SPF)
Bit depth : 16 bits
Compression mode : Lossy
Stream size : 134 MiB (6%)
Language : English
Service kind : Complete Main
Default : No
Forced : No
Text #1
ID : 4
Format : UTF-8
Codec ID : S_TEXT/UTF8
Codec ID/Info : UTF-8 Plain Text
Duration : 1 h 21 min
Bit rate : 17 b/s
Count of elements : 234
Stream size : 10.7 KiB (0%)
Title : Forced
Language : Russian
Default : Yes
Forced : No
Text #2
ID : 5
Format : UTF-8
Codec ID : S_TEXT/UTF8
Codec ID/Info : UTF-8 Plain Text
Duration : 1 h 37 min
Bit rate : 58 b/s
Count of elements : 1494
Stream size : 41.9 KiB (0%)
Language : English
Default : No
Forced : No
Menu
00:00:00.000 : en:Chapter 01
00:07:49.761 : en:Chapter 02
00:15:27.760 : en:Chapter 03
00:22:45.281 : en:Chapter 04
00:30:51.725 : en:Chapter 05
00:43:33.152 : en:Chapter 06
00:50:54.468 : en:Chapter 07
00:58:00.560 : en:Chapter 08
01:04:35.914 : en:Chapter 09
01:11:42.256 : en:Chapter 10
01:18:46.889 : en:Chapter 11
01:24:58.844 : en:Chapter 12

Скриншоты

[cybertorrent.ru].t374.torrent 
Торрент: Зарегистрирован [ 2019-03-18 10:04 ] · F76E9FC4129899EC7AA75EBAE321CDB55CA86CFB

Скачать .torrent

Скачать

11 KB

Статус: проверено
Скачан: 0 раз
Размер: 2,19 GB
terms.php
Профиль ЛС
Показать сообщения:    

Текущее время: 17-Окт 08:47

Часовой пояс: UTC ± 0



Вы не можете начинать темы
Вы не можете отвечать на сообщения
Вы не можете редактировать свои сообщения
Вы не можете удалять свои сообщения
Вы не можете голосовать в опросах
Вы не можете прикреплять файлы к сообщениям
Вы можете скачивать файлы