Статистика раздачи
Размер:  742 MB   |    Зарегистрирован:  3 месяца 7 дней   |    Скачан:  0 раз

Полного источника не было: Никогда

Личеров:  2  [  0 KB/s  ]  
 
   
 
 

lopster ®

Пол:
Не указан
Стаж:
3 месяца 7 дней
Сообщений:
612

Бабушка лёгкого поведения
Выпущено: Vice Films
Жанр: комедия
Год выпуска: 2017
Продолжительность: 01:21:23
Субтитры: нет-Режиссер:
Марюс Вайсберг-В ролях:
Александр Ревва, Глюкоза, Филипп Киркоров, Елена Валюшкина, Владимир Толоконников, Евгений Герчаков, Ёла Санько, Ольга Благая, Наталья Бардо, Марина Федункив-Описание:
Мастер перевоплощений Саня по прозвищу Трансформер провернул кучу афер, точь-в-точь изображая десятки персонажей. Но в этот раз он украл не у тех… Теперь у парня на хвосте очень плохие люди с пистолетами. Саня решает залечь на дно в доме престарелых в образе пожилой тети. И когда ему казалось, что он попал в безвыходную ситуацию, новый поворот судьбы дарит ему любовь и надежду превратиться в приличного человека.- -Качество видео: WEB-DLRip
Формат видео: AVI
Видео: 688x384 (1.79:1), 25 fps, XviD build 73 ~1137 kbps avg, 0.17 bit/pixel
Аудио: 48 kHz, MPEG Layer 3, 2 ch, ~128.00 kbps avg-Скачать сэмпл-

MediaInfo

Код:Format : AVI
Format/Info : Audio Video Interleave
File size : 742 MiB
Duration : 1 h 21 min
Overall bit rate : 1 276 kb/s
Writing application : VirtualDubMod 1.5.10.3 | www.virtualdub-fr.org || (build 2550/release)
Writing library : VirtualDubMod build 2550/release
Video
ID : 0
Format : MPEG-4 Visual
Format profile : Advanced Simple@L5
Format settings, BVOP : 1
Format settings, QPel : No
Format settings, GMC : No warppoints
Format settings, Matrix : Default (H.263)
Codec ID : XVID
Codec ID/Hint : XviD
Duration : 1 h 21 min
Bit rate : 1 138 kb/s
Width : 688 pixels
Height : 384 pixels
Display aspect ratio : 16:9
Frame rate : 25.000 FPS
Color space : YUV
Chroma subsampling : 4:2:0
Bit depth : 8 bits
Scan type : Progressive
Compression mode : Lossy
Bits/(Pixel*Frame) : 0.172
Stream size : 662 MiB (89%)
Writing library : XviD 73
Audio
ID : 1
Format : MPEG Audio
Format version : Version 1
Format profile : Layer 3
Codec ID : 55
Codec ID/Hint : MP3
Duration : 1 h 21 min
Bit rate mode : Constant
Bit rate : 128 kb/s
Channel(s) : 2 channels
Sampling rate : 48.0 kHz
Compression mode : Lossy
Stream size : 74.5 MiB (10%)
Alignment : Aligned on interleaves
Interleave, duration : 40 ms (1.00 video frame)
Interleave, preload duratio : 504 ms
Writing library : LAME3.99r
Encoding settings : -m s -V 4 -q 2 -lowpass 17 -b 128

Скриншоты

[cybertorrent.ru].t374.torrent 
Торрент: Зарегистрирован [ 2018-02-15 15:48 ] · 4AAD89964117AD789BB5AA252005AB8E2443069B

Скачать .torrent

Скачать

15 KB

Статус: проверено
Скачан: 0 раз
Размер: 742 MB
Профиль [ЛС]
Показать сообщения:    

Текущее время: 23-Май 07:15

Часовой пояс: UTC ± 0



Вы не можете начинать темы
Вы не можете отвечать на сообщения
Вы не можете редактировать свои сообщения
Вы не можете удалять свои сообщения
Вы не можете голосовать в опросах
Вы не можете прикреплять файлы к сообщениям
Вы можете скачивать файлы