Статистика раздачи
Размер:  1,43 GB   |    Зарегистрирован:  3 месяца 11 дней   |    Скачан:  0 раз

Полного источника не было: Никогда

Личеров:  2  [  0 KB/s  ]  
 
   
 
 

lopster ®

Пол:
Не указан
Стаж:
3 месяца 11 дней
Сообщений:
612

Иди и не оглядывайся
Жанр: драма
Год выпуска: 1992
Продолжительность: 01:10:17
Режиссёр: Алексей Меньшиков
В ролях: Марина Сахарова, Игорь Миркурбанов, Надежда Озерова, Юрий Данабаев, Вячеслав Кириличев, Татьяна Малягина, Елена Бушуева, Ольга Прохватыло, Сергей Зубарев, Ольга Жилкина, Борис Волчек (II), Андрей Неустроев
Описание: Режиссер-документалист Татьяна работает над фильмом о бывшем чемпионе Европы по боксу Вадиме Ларине. Как режиссер, она хочет, чтобы он вернулся на ринг, что сделало бы ее фильм более оптимистичным. Сам Ларин, тронутый вниманием Татьяны и влюбленный в нее, готов откликнуться на это пожелание.
Доп. информация: Запись потока *.ts со спутника ABS-2, 75° в.д., удаление рекламы программой VideoReDo.
Качество видео: DVB
Формат видео: TS
Видео: MPEG2 Video, 720(768)x576 (4:3), 25,000 кадров/сек, 2567 Кбит/сек
Аудио: MPEG Audio, 48,0 КГц, 192 Кбит/сек, 2 канала

MediaInfo

Общее
Идентификатор : 1 (0x1)
Полное имя : D:\MPG\ИДИ И НЕ ОГЛЯДЫВАЙСЯ (TPO).ts
Формат : MPEG-TS
Размер файла : 1,43 Гбайт
Продолжительность : 1 ч. 10 м.
Режим общего битрейта : Переменный
Общий поток : 2905 Кбит/сек
Видео
Идентификатор : 531 (0x213)
Идентификатор меню : 1 (0x1)
Формат : MPEG Video
Версия формата : Version 2
Профиль формата : Main@Main
Параметр BVOP формата : Нет
Параметр матрицы формата : Выборочная
Параметр GOP формата : Variable
Структура изображения : Frame
Идентификатор кодека : 2
Продолжительность : 1 ч. 10 м.
Вид битрейта : Переменный
Битрейт : 2567 Кбит/сек
Максимальный битрейт : 15,0 Мбит/сек
Ширина : 704 пикселя
Высота : 576 пикселей
Соотношение сторон : 4:3
Частота кадров : 25,000 кадров/сек
Стандарт вещания : PAL
Цветовое пространство : YUV
Субдискретизация насыщенности : 4:2:0
Битовая глубина : 8 бит
Тип развёртки : Чересстрочная
Порядок развёртки : Верхнее поле первое
Метод сжатия : С потерями
Бит/(Пиксели*Кадры) : 0.253
Временной код первого кадра : 00:00:00:00
Оригинал временного кода : Group of pictures header
GOP, открыто/закрыто : Открыто
GOP, открыто/закрыто на первом кадре : Закрыто
Размер потока : 1,26 Гбайт (88%)
Аудио
Идентификатор : 532 (0x214)
Идентификатор меню : 1 (0x1)
Формат : MPEG Audio
Версия формата : Version 1
Профиль формата : Layer 2
Идентификатор кодека : 3
Продолжительность : 1 ч. 10 м.
Вид битрейта : Постоянный
Битрейт : 192 Кбит/сек
Каналы : 2 канала
Частота : 48,0 КГц
Метод сжатия : С потерями
Задержка видео : 10 мс.
Размер потока : 96,5 Мбайт (7%)
Язык : Russian

Скриншот c названием фильма

Скриншоты

[cybertorrent.ru].t375.torrent 
Торрент: Зарегистрирован [ 2018-02-15 15:48 ] · A186FC600DC5E4555D8A1AB8FDA116B78F6345E0

Скачать .torrent

Скачать

15 KB

Статус: проверено
Скачан: 0 раз
Размер: 1,43 GB
Профиль [ЛС]
Показать сообщения:    

Текущее время: 27-Май 01:41

Часовой пояс: UTC ± 0



Вы не можете начинать темы
Вы не можете отвечать на сообщения
Вы не можете редактировать свои сообщения
Вы не можете удалять свои сообщения
Вы не можете голосовать в опросах
Вы не можете прикреплять файлы к сообщениям
Вы можете скачивать файлы