Статистика раздачи
Размер:  1,37 GB   |    Зарегистрирован:  3 месяца 9 дней   |    Скачан:  0 раз

Полного источника не было: Никогда

 
   
 
 

lopster ®

Пол:
Не указан
Стаж:
3 месяца 9 дней
Сообщений:
612

Грех. История страсти
Год выпуска: 1993
Жанр: Мелодрама
Продолжительность: 01:48:56
Режиссер: Виктор Сергеев
В ролях: Александр Абдулов, Ольга Антонова, Борис Клюев, Владимир Сошальский, Георгий Мартиросян, Нина Русланова, Андрей Ургант, Валентин Никулин, Сергей Селин, Анатолий Шведерский, Сергей Снежкин, Александр Сластин, Ольга Понизова
Описание: История о блуднице и монахе. Совершенно случайно они познакомились на автовокзале - девушка без определенных занятий Нина и монах Агафангел. Вскоре он подвергся нападению бандитов, и Нина привезла его, окровавленного и избитого, к себе домой. Так началась история их "грешной" любви, связанной с немалыми опасностями и даже с риском для жизни. Ведь бандиты напали на Агафангела неслучайно. Александр Абдулов играет в этом фильме необычного для русского кино героя - современного священника. Влюбленная в него Нина готова пойти на любые жертвы и ухищрения, чтобы добиться взаимности. Девушка не знает, что объект ее желания далек от идеала святости, а его прошлое отягощено преступлением. Съемки фильма происходили в России, Германии и Израиле, в монастырях Новгорода, Валдая и Иерусалима.
Все раздачи фильма: Грех. История страсти
релиз от:
Качество: DVDRip
Формат: AVI
Видео кодек: DiVX
Аудио кодек: AC3
Видео: DiVX, 1345 Кбит/с, 720х544
Аудио: AC3, 448 Кбит/с

MI

Код:Общее
Полное имя : C:\otkat\Видео\Грех История страсти\Grex_[torrents.ru].avi
Формат : AVI
Формат/Информация : Audio Video Interleave
Размер файла : 1,37 Гбайт
Продолжительность : 1 ч. 48 м.
Общий поток : 1798 Кбит/сек
Программа кодирования : VirtualDubMod 1.5.4.1 (build 2178/release)
Библиотека кодирования : VirtualDubMod build 2178/release
Видео
Идентификатор : 0
Формат : MPEG-4 Visual
Параметр BVOP формата : 1
Параметр QPel формата : Нет
Параметр GMC формата : Без точки перехода
Параметр матрицы формата : Default (H.263)
Режим смешивания : Сжатый битовый поток
Идентификатор кодека : DX50
Идентификатор кодека/Подсказка : DivX 5
Продолжительность : 1 ч. 48 м.
Битрейт : 1343 Кбит/сек
Ширина : 720 пикселей
Высота : 544 пикселя
Соотношение сторон : 4:3
Частота кадров : 25,000 кадров/сек
Цветовое пространство : YUV
Субдискретизация насыщенности : 4:2:0
Битовая глубина : 8 бит
Тип развёртки : Прогрессивная
Метод сжатия : С потерями
Бит/(Пиксели*Кадры) : 0.137
Размер потока : 1,02 Гбайт (75%)
Библиотека кодирования : DivX 6.5.1 (UTC 2007-03)
Аудио
Идентификатор : 1
Формат : AC-3
Формат/Информация : Audio Coding 3
Расширение режима : CM (complete main)
Параметр Endianness формата : Big
Идентификатор кодека : 2000
Продолжительность : 1 ч. 48 м.
Вид битрейта : Постоянный
Битрейт : 448 Кбит/сек
Каналы : 6 каналов
Расположение каналов : Front: L C R, Side: L R, LFE
Частота : 48,0 КГц
Частота кадров : 31,250 кадров/сек (1536 spf)
Метод сжатия : С потерями
Размер потока : 349 Мбайт (25%)
Выравнивание : Разделение по промежуткам
Продолжительность промежутка : 96 мс. (2,40 видеокадра)
Время предзагрузки промежутка : 96 мс.
Язык : Russian

Скриншоты


[cybertorrent.ru].t38.torrent 
Торрент: Зарегистрирован [ 2018-02-15 13:57 ] · FF8388EE44BFD684DA90E27D6447D749846B48D6

Скачать .torrent

Скачать

14 KB

Статус: проверено
Скачан: 0 раз
Размер: 1,37 GB
Профиль [ЛС]
Показать сообщения:    

Текущее время: 25-Май 09:03

Часовой пояс: UTC ± 0



Вы не можете начинать темы
Вы не можете отвечать на сообщения
Вы не можете редактировать свои сообщения
Вы не можете удалять свои сообщения
Вы не можете голосовать в опросах
Вы не можете прикреплять файлы к сообщениям
Вы можете скачивать файлы