Статистика раздачи
Размер:  5,79 GB   |    Зарегистрирован:  3 месяца 8 дней   |    Скачан:  0 раз

Полного источника не было: Никогда

 
   
 
 

lopster ®

Пол:
Не указан
Стаж:
3 месяца 8 дней
Сообщений:
612

Супермент
Жанр: боевик, приключения
Год выпуска: 1990
Продолжительность: 02:11:38
Режиссёр: Валерий Харченко
В ролях: Вадим Андреев, Мария Авдюшко, Клара Белова, Михаил Филиппов, Арчил Гомиашвили, Деана Хорватова, Валерий Ивченко, Сулев Луйк, Константин Роднин, Улдис Вейспал
Описание: "Супермент - это главный герой картины, майор уголовного розыска, эдакий супермен по кличке Шериф, наводящий ужас на бандитов в курортном приморском городке. Действует он с стиле "Грязного Гарри", но только покруче, что видно уже в самом начале по тому, как он катает на машине свою любовницу, переводчицу из Интуриста - гонки на выживание. Охотится он на торговцев наркотиками, ловит, стреляет среди толпы людей, а задержанные потом все дружно отказываются от показаний. Дострелялся шериф - отстраняют его от оперативной работы, но он, понятно, не сдается. Он вступает в борьбу с мафией, как комиссар Каттани... Он же - супермент! А как ему идет щетина на мужественном лице! Только для любителей отечественных боевиков". (Иванов М.)
Доп. информация: Оцифровка VHS (личный архив) и получение VHSRip alenavova
Эксклюзив для rutracker.org. При размещении данного релиза на других сайтах ссылка на автора alenavova обязательна.
Релиз
Сэмпл: https://yadi.sk/i/n8SnPIFf3NAFYa
Качество видео: VHSRip
Формат видео: MPG
Видео: MPEG2 Video 720x576 (4:3) 25fps 6000kbps
Аудио: MPEG Audio 48000Hz 192kbps

MediaInfo

Супермент [by alenavova].mpg
Format : MPEG-PS
File size : 5.79 GiB
Duration : 2 h 11 min
Overall bit rate mode : Constant
Overall bit rate : 6 293 kb/s
Video
ID : 224 (0xE0)
Format : MPEG Video
Format version : Version 2
Format profile : Main@Main
Format settings, BVOP : Yes
Format settings, Matrix : Custom
Format settings, GOP : M=3, N=15
Duration : 2 h 11 min
Bit rate mode : Constant
Bit rate : 6 000 kb/s
Width : 720 pixels
Height : 576 pixels
Display aspect ratio : 4:3
Frame rate : 25.000 FPS
Standard : PAL
Color space : YUV
Chroma subsampling : 4:2:0
Bit depth : 8 bits
Scan type : Progressive
Compression mode : Lossy
Bits/(Pixel*Frame) : 0.579
Time code of first frame : 00:00:00:00
Time code source : Group of pictures header
GOP, Open/Closed : Open
GOP, Open/Closed of first f : Closed
Stream size : 5.49 GiB (95%)
Audio
ID : 192 (0xC0)
Format : MPEG Audio
Format version : Version 1
Format profile : Layer 2
Duration : 2 h 11 min
Bit rate mode : Constant
Bit rate : 192 kb/s
Channel(s) : 2 channels
Sampling rate : 48.0 kHz
Compression mode : Lossy
Delay relative to video : -27 ms
Stream size : 181 MiB (3%)

Скриншоты

[cybertorrent.ru].t383.torrent 
Торрент: Зарегистрирован [ 2018-02-15 15:48 ] · AE6A9F4847B56BE21234DD9C3877FCF21665D168

Скачать .torrent

Скачать

29 KB

Статус: проверено
Скачан: 0 раз
Размер: 5,79 GB
Профиль [ЛС]
Показать сообщения:    

Текущее время: 23-Май 16:23

Часовой пояс: UTC ± 0



Вы не можете начинать темы
Вы не можете отвечать на сообщения
Вы не можете редактировать свои сообщения
Вы не можете удалять свои сообщения
Вы не можете голосовать в опросах
Вы не можете прикреплять файлы к сообщениям
Вы можете скачивать файлы