Статистика раздачи
Размер:  1,47 GB   |    Зарегистрирован:  3 месяца 12 дней   |    Скачан:  0 раз
Сидов:  278  [  0 KB/s  ]   Личеров:  1  [  0 KB/s  ]  
 
   
 
 

lopster ®

Пол:
Не указан
Стаж:
3 месяца 12 дней
Сообщений:
612

Гоголь. Начало
«Самая тёмная ночь перед рассветом»
Жанр: приключения, триллер, детектив
Год выпуска: 2017
Продолжительность: 01:46:42
Режиссер: Егор Баранов
В ролях: Александр Петров, Олег Меньшиков, Евгений Стычкин, Таисия Вилкова, Артем Ткаченко, Юлия Франц, Евгений Сытый, Ян Цапник, Сергей Бадюк, Марта Тимофеева, Светлана Киреева, Артем Сучков
Описание:
Казаки, ведьмы, русалки, утопленницы и другие обитатели Диканьки встречаются лицом к лицу со своим создателем Николаем Гоголем, молодым писарем из Петербурга, который страдает загадочными припадками и может общаться с персонажами из потустороннего мира. Вместе со своим начальником, блестящим столичным следователем Яковым Гуро, начинающий писатель приезжает на Полтавщину расследовать таинственные убийства девушек. Здесь же он встречает свою любовь, которой суждено сыграть роковую роль в его судьбе. Но хватит ли юному литератору духу противостоять невообразимому? Ведь по слухам, которые активно разносят напуганные местные жители, за преступлениями стоит не кто иной, как сам Дьявол в обличии черного всадника.
Полная версия [18+] - без цензуры!

Автор рипа: stalkerok
Сэмпл
Качество видео: WEB-DLRip-AVC [Gogol.Nachalo.2017.1080p.WEB-DL.Rus.EliteHD]
Формат видео: MKV
Видео: 1587 Кбит/сек, 1110x466 (2.40:1), 24 кадр/сек, AVC
Аудио: русский, 384 Кбит/сек, 48 КГц, 5.1, AC3 [iTunes]
Навигация по главам: есть

x264/MediaInfo

x264 [info]: frame I:1264 Avg QP:15.34 size: 45770
x264 [info]: frame P:39296 Avg QP:17.70 size: 15848
x264 [info]: frame B:113088 Avg QP:19.65 size: 5215
General
Unique ID : 175101940018425891281460419523884696022 (0x83BB682E8AD109ED884B91CC457141D6)
Complete name : M:\!Rips2017\Gogol'. Nachalo\Gogol.Nachalo.2017.WEB-DLRip-AVC.RUS.stalkerok.new-team.mkv
Format : Matroska
Format version : Version 4 / Version 2
File size : 1.47 GiB
Duration : 1 h 46 min
Overall bit rate : 1 973 kb/s
Movie name : Гоголь. Начало (2017) (Rip by stalkerok)
Encoded date : UTC 2017-10-01 00:03:37
Writing application : mkvmerge v15.0.0 ('Duel with the Devil') 64-bit
Writing library : libebml v1.3.5 + libmatroska v1.4.5
Video
ID : 1
Format : AVC
Format/Info : Advanced Video Codec
Format profile : High@L4.1
Format settings, CABAC : Yes
Format settings, ReFrames : 15 frames
Codec ID : V_MPEG4/ISO/AVC
Duration : 1 h 46 min
Bit rate : 1 588 kb/s
Width : 1 110 pixels
Height : 466 pixels
Display aspect ratio : 2.40:1
Original display aspect ratio : 2.40:1
Frame rate mode : Constant
Frame rate : 24.000 FPS
Color space : YUV
Chroma subsampling : 4:2:0
Bit depth : 8 bits
Scan type : Progressive
Bits/(Pixel*Frame) : 0.128
Stream size : 1.18 GiB (80%)
Title : Гоголь. Начало (2017) (Rip by stalkerok)
Writing library : x264 core 150 r2833kMod df79067
Encoding settings : cabac=1 / ref=15 / deblock=1:-3:-2 / analyse=0x3:0x133 / me=umh / subme=11 / psy=1 / fade_compensate=0.00 / psy_rd=1.00:0.00 / mixed_ref=1 / me_range=32 / chroma_me=1 / trellis=2 / 8x8dct=1 / cqm=0 / deadzone=21,11 / fast_pskip=0 / chroma_qp_offset=-2 / threads=12 / lookahead_threads=3 / sliced_threads=0 / nr=0 / decimate=1 / interlaced=0 / bluray_compat=0 / constrained_intra=0 / bframes=15 / b_pyramid=2 / b_adapt=2 / b_bias=0 / direct=3 / weightb=1 / open_gop=0 / weightp=2 / keyint=240 / keyint_min=23 / scenecut=40 / intra_refresh=0 / rc_lookahead=60 / rc=crf / mbtree=0 / crf=19.0000 / qcomp=0.65 / qpmin=0 / qpmax=69 / qpstep=4 / vbv_maxrate=50000 / vbv_bufsize=62500 / crf_max=0.0 / nal_hrd=none / filler=0 / ip_ratio=1.40 / pb_ratio=1.25 / aq=3:0.80 / zones=148550,153647,q=32
Default : Yes
Forced : No
Audio
ID : 2
Format : AC-3
Format/Info : Audio Coding 3
Mode extension : CM (complete main)
Format settings, Endianness : Big
Codec ID : A_AC3
Duration : 1 h 46 min
Bit rate mode : Constant
Bit rate : 384 kb/s
Channel(s) : 6 channels
Channel positions : Front: L C R, Side: L R, LFE
Sampling rate : 48.0 kHz
Frame rate : 31.250 FPS (1536 spf)
Compression mode : Lossy
Stream size : 293 MiB (19%)
Title : AC3 5.1 @ 384 kbps
Language : Russian
Default : Yes
Forced : No
Menu
00:00:00.000 : en:1
00:05:51.958 : en:2
00:10:17.083 : en:3
00:15:44.041 : en:4
00:22:17.791 : en:5
00:27:06.791 : en:6
00:33:22.416 : en:7
00:40:16.791 : en:8
00:46:53.207 : en:9
00:54:39.290 : en:10
01:00:58.581 : en:11
01:07:46.164 : en:12
01:13:40.289 : en:13
01:20:47.830 : en:14
01:26:59.955 : en:15
01:32:11.121 : en:16
01:38:34.496 : en:17

Скриншоты

[cybertorrent.ru].t387.torrent 
Торрент: Зарегистрирован [ 2018-02-15 15:48 ] · DF21D0C16A6F51769CCDC4A8CFD3DC39615F58D4

Скачать .torrent

Скачать

15 KB

Статус: проверено
Скачан: 0 раз
Размер: 1,47 GB
Профиль [ЛС]
Показать сообщения:    

Текущее время: 28-Май 03:22

Часовой пояс: UTC ± 0



Вы не можете начинать темы
Вы не можете отвечать на сообщения
Вы не можете редактировать свои сообщения
Вы не можете удалять свои сообщения
Вы не можете голосовать в опросах
Вы не можете прикреплять файлы к сообщениям
Вы можете скачивать файлы