Статистика раздачи
Размер:  1,46 GB   |    Зарегистрирован:  3 месяца 6 дней   |    Скачан:  0 раз

Полного источника не было: Никогда

Личеров:  7  [  0 KB/s  ]  
 
   
 
 

lopster ®

Пол:
Не указан
Стаж:
3 месяца 6 дней
Сообщений:
612

Макаров
Жанр: триллер, драма, притча
Год выпуска: 1993
Продолжительность: 01:33:44
-
Режиссёр: Владимир Хотиненко
В ролях: Сергей Маковецкий, Елена Майорова, Ирина Метлицкая, Владимир Ильин, Сергей Паршин (озвучание - Владимир Ерёмин), Виктор Смирнов, Юлия Рутберг, Леонид Окунев, Евгений Стеблов, Илья Рутберг, Иван Агафонов
-
Описание: Поэт Александр Сергеевич Макаров становится обладателем пистолета системы своего однофамильца. Обладание оружием в корне меняет жизнь героя и его отношения с окружающими — он как бы становится придатком к пистолету, не выдерживает «проверки на прочность».
-
Доп. информация: Плавающий кроп: слева и справа.
-
Сэмпл: https://www.sendspace.com/file/slpgp4
-
Качество видео: DVDRip-AVC (cybernatic_cat)
Формат видео: MKV
Видео: 712x572 (4:3) @ 759x572, 25 fps, AVC, ~2 035 Kbps, 0.200 bits/pixel
Аудио: 48 kHz, AC3 Dolby Digital, 2/0 (L,R) ch ~192 kbps

MediaInfo

x264 [info]: frame I:933 Avg QP:16.74 size: 49685
x264 [info]: frame P:17709 Avg QP:19.14 size: 21515
x264 [info]: frame B:121971 Avg QP:21.05 size: 8227-General
Unique ID : 179436089174211968354367218439627498312 (0x86FE223BC3BC5A91A96E64C291406348)
Complete name : C:\Users\ALEX\Desktop\Фильмы\Макаров.1993.DVDRip-AVC.x264.AC3.mkv
Format : Matroska
Format version : Version 4 / Version 2
File size : 1.46 GiB
Duration : 1 h 33 min
Overall bit rate : 2 229 kb/s
Movie name : Макаров
Encoded date : UTC 2017-10-11 16:19:48
Writing application : mkvmerge v8.5.2 ('Crosses') 64bit
Writing library : libebml v1.3.3 + libmatroska v1.4.4
Video
ID : 1
Format : AVC
Format/Info : Advanced Video Codec
Format profile : High@L4.1
Format settings, CABAC : Yes
Format settings, ReFrames : 12 frames
Codec ID : V_MPEG4/ISO/AVC
Duration : 1 h 33 min
Bit rate : 2 035 kb/s
Width : 712 pixels
Height : 572 pixels
Display aspect ratio : 4:3
Original display aspect rat : 4:3
Frame rate mode : Constant
Frame rate : 25.000 FPS
Color space : YUV
Chroma subsampling : 4:2:0
Bit depth : 8 bits
Scan type : Progressive
Bits/(Pixel*Frame) : 0.200
Stream size : 1.33 GiB (91%)
Title : Макаров
Writing library : x264 core 148 r2744 b97ae06
Encoding settings : cabac=1 / ref=12 / deblock=1:-1:-1 / analyse=0x3:0x113 / me=umh / subme=10 / psy=1 / psy_rd=1.00:0.05 / mixed_ref=1 / me_range=32 / chroma_me=1 / trellis=2 / 8x8dct=1 / cqm=0 / deadzone=21,11 / fast_pskip=0 / chroma_qp_offset=-3 / threads=3 / lookahead_threads=1 / sliced_threads=0 / nr=0 / decimate=1 / interlaced=0 / bluray_compat=0 / constrained_intra=0 / bframes=10 / b_pyramid=2 / b_adapt=1 / b_bias=0 / direct=3 / weightb=1 / open_gop=0 / weightp=2 / keyint=250 / keyint_min=25 / scenecut=40 / intra_refresh=0 / rc=2pass / mbtree=0 / bitrate=2035 / ratetol=1.0 / qcomp=0.60 / qpmin=0 / qpmax=69 / qpstep=4 / cplxblur=20.0 / qblur=0.5 / ip_ratio=1.40 / pb_ratio=1.30 / aq=1:1.00
Language : Russian
Default : No
Forced : No
Audio
ID : 2
Format : AC-3
Format/Info : Audio Coding 3
Format settings, Endianness : Big
Codec ID : A_AC3
Duration : 1 h 33 min
Bit rate mode : Constant
Bit rate : 192 kb/s
Channel(s) : 2 channels
Channel positions : Front: L R
Sampling rate : 48.0 kHz
Frame rate : 31.250 FPS (1536 spf)
Bit depth : 16 bits
Compression mode : Lossy
Stream size : 129 MiB (9%)
Title : Оригинал
Language : Russian
Service kind : Complete Main
Default : No
Forced : No

Скриншоты

[cybertorrent.ru].t397.torrent 
Торрент: Зарегистрирован [ 2018-02-15 15:48 ] · 484BFEDCD861C83AB08826529F071883C6ED6C72

Скачать .torrent

Скачать

15 KB

Статус: проверено
Скачан: 0 раз
Размер: 1,46 GB
Профиль [ЛС]
Показать сообщения:    

Текущее время: 22-Май 00:23

Часовой пояс: UTC ± 0



Вы не можете начинать темы
Вы не можете отвечать на сообщения
Вы не можете редактировать свои сообщения
Вы не можете удалять свои сообщения
Вы не можете голосовать в опросах
Вы не можете прикреплять файлы к сообщениям
Вы можете скачивать файлы