Статистика раздачи
Размер:  1,55 GB   |    Зарегистрирован:  3 месяца 12 дней   |    Скачан:  0 раз
Сидов:  73  [  0 KB/s  ]   Личеров:  6  [  0 KB/s  ]  
 
   
 
 

lopster ®

Пол:
Не указан
Стаж:
3 месяца 12 дней
Сообщений:
612

Напарник
«Новорождён и очень опасен»
Жанр: комедия, приключения
Год выпуска: 2017
Продолжительность: 01:32:35
Режиссер: Александр Андрющенко
В ролях: Сергей Гармаш, Андрей Назимов, Лиза Арзамасова, Ксения Лаврова-Глинка, Ян Цапник, Филипп Яицкий, Андрей Золотарев, Сахат Дурсунов, Евгений Коряковский, Юнчен Жуань, Ян Гэ, Яна Кошкина
Описание:
Неудачная спецоперация заканчивается для майора Хромова переселением в тело маленького ребенка. И всему виной проклятие гадалки! Но даже пересев из полицейской машины в детскую коляску, он умудряется доставить немало хлопот преступному синдикату на Дальнем Востоке. При этом мама ребенка не подозревает, что ее сын способен вести жесткие допросы, а папа вынужден стать невольным «напарником» Хромова. Ведь для того, чтобы вернуть все на свои места, им предстоит закончить спецоперацию, а значит, отец с младенцем начинают охоту на самого опасного главаря местной мафии.

Автор рипа: stalkerok
Сэмпл
Качество видео: WEB-DLRip-AVC [WEB-DL 1080p]
Формат видео: MKV
Видео: 2016 Кбит/сек, 1072x450 (2.40:1), 24 кадр/сек, AVC
Аудио: русский, 384 Кбит/сек, 48 КГц, 5.1, AC3 [iTunes]
Навигация по главам: есть

x264/MediaInfo

x264 [info]: frame I:1580 Avg QP:16.01 size: 55659
x264 [info]: frame P:34706 Avg QP:18.89 size: 20276
x264 [info]: frame B:97045 Avg QP:21.02 size: 6275
General
Unique ID : 220395277016849477796581163545052706165 (0xA5CE961BBE3FC5E08148D1FD3F55F575)
Complete name : M:\!Rips2017\Naparnik\Naparnik.WEB-DLRip-AVC.RUS.stalkerok.new-team.mkv
Format : Matroska
Format version : Version 4 / Version 2
File size : 1.55 GiB
Duration : 1 h 32 min
Overall bit rate : 2 403 kb/s
Movie name : Напарник (2017) (Rip by stalkerok)
Encoded date : UTC 2017-10-12 05:23:54
Writing application : mkvmerge v8.6.1 ('Flying') 64bit
Writing library : libebml v1.3.3 + libmatroska v1.4.4
Video
ID : 1
Format : AVC
Format/Info : Advanced Video Codec
Format profile : High@L4.1
Format settings, CABAC : Yes
Format settings, ReFrames : 14 frames
Codec ID : V_MPEG4/ISO/AVC
Duration : 1 h 32 min
Bit rate : 2 017 kb/s
Width : 1 072 pixels
Height : 450 pixels
Display aspect ratio : 2.40:1
Frame rate mode : Constant
Frame rate : 24.000 FPS
Color space : YUV
Chroma subsampling : 4:2:0
Bit depth : 8 bits
Scan type : Progressive
Bits/(Pixel*Frame) : 0.174
Stream size : 1.30 GiB (84%)
Title : Напарник (2017) (Rip by stalkerok)
Writing library : x264 core 150 r2833kMod df79067
Encoding settings : cabac=1 / ref=14 / deblock=1:-3:-2 / analyse=0x3:0x133 / me=umh / subme=11 / psy=1 / fade_compensate=0.00 / psy_rd=1.00:0.00 / mixed_ref=1 / me_range=32 / chroma_me=1 / trellis=2 / 8x8dct=1 / cqm=0 / deadzone=21,11 / fast_pskip=0 / chroma_qp_offset=-2 / threads=12 / lookahead_threads=3 / sliced_threads=0 / nr=0 / decimate=1 / interlaced=0 / bluray_compat=0 / constrained_intra=0 / bframes=14 / b_pyramid=2 / b_adapt=2 / b_bias=0 / direct=3 / weightb=1 / open_gop=0 / weightp=2 / keyint=240 / keyint_min=23 / scenecut=40 / intra_refresh=0 / rc_lookahead=60 / rc=crf / mbtree=0 / crf=18.3000 / qcomp=0.65 / qpmin=0 / qpmax=69 / qpstep=4 / vbv_maxrate=50000 / vbv_bufsize=62500 / crf_max=0.0 / nal_hrd=none / filler=0 / ip_ratio=1.40 / pb_ratio=1.30 / aq=3:0.80 / zones=123506,125754,q=27/125755,133330,q=33
Default : Yes
Forced : No
Audio
ID : 2
Format : AC-3
Format/Info : Audio Coding 3
Mode extension : CM (complete main)
Format settings, Endianness : Big
Codec ID : A_AC3
Duration : 1 h 32 min
Bit rate mode : Constant
Bit rate : 384 kb/s
Channel(s) : 6 channels
Channel positions : Front: L C R, Side: L R, LFE
Sampling rate : 48.0 kHz
Frame rate : 31.250 FPS (1536 spf)
Compression mode : Lossy
Stream size : 254 MiB (16%)
Language : Russian
Default : Yes
Forced : No
Menu
00:00:00.000 : en:Глава 1
00:07:11.958 : en:Глава 2
00:13:16.041 : en:Глава 3
00:20:34.041 : en:Глава 4
00:27:24.874 : en:Глава 5
00:32:59.874 : en:Глава 6
00:38:10.749 : en:Глава 7
00:45:00.332 : en:Глава 8
00:49:46.832 : en:Глава 9
00:57:03.165 : en:Глава 10
01:03:57.123 : en:Глава 11
01:10:10.123 : en:Глава 12
01:16:10.081 : en:Глава 13
01:20:38.581 : en:Глава 14

Скриншоты

[cybertorrent.ru].t399.torrent 
Торрент: Зарегистрирован [ 2018-02-15 15:48 ] · 6DB3BB56099F2E62E27F2755295000CEED5A7433

Скачать .torrent

Скачать

16 KB

Статус: проверено
Скачан: 0 раз
Размер: 1,55 GB
Профиль [ЛС]
Показать сообщения:    

Текущее время: 28-Май 08:12

Часовой пояс: UTC ± 0



Вы не можете начинать темы
Вы не можете отвечать на сообщения
Вы не можете редактировать свои сообщения
Вы не можете удалять свои сообщения
Вы не можете голосовать в опросах
Вы не можете прикреплять файлы к сообщениям
Вы можете скачивать файлы