BitTorrent клиенты



(Soundtrack) Очень странные дела / Stranger Things - 2017, FLAC (tracks+.cue), lossless

Ответить на тему
Статистика раздачи
Размер:  504 MB   |    Зарегистрирован:  9 месяцев 2 дня   |    Скачан:  0 раз

Полного источника не было: Никогда

 
   
 
 
Автор Сообщение

4el ®

Пол: Не указан

Стаж: 1 год

Сообщений: 633

Создавать темы 17-Май-2018 15:43

[Цитировать]

Очень странные дела / Stranger Things
Жанр: Soundtrack
Год выпуска диска: 2017
Аудиокодек: FLAC (*.flac)
Тип рипа: tracks+.cue
Битрейт аудио: lossless
Продолжительность: 01:18:34
Источник: apollo
Наличие сканов в содержимом раздачи: нет

Треклист


01. Will Byers – Will Singing The Clash (Intro) (0:27)
02. The Police – Every Breath You Take (4:11)
03. The Clash – Should I Stay Or Should I Go (3:06)
04. Jim Hopper – Coffee And Contemplation (0:09)
05. The Bangles – Hazy Shade Of Winter (2:45)
06. Echo And The Bunnymen – Nocturnal Me (4:58)
07. Joyce Byers – Bring Him Home (0:07)
08. Corey Hart – Sunglasses At Night (3:54)
09. Duran Duran – Girls On Film (3:34)
10. Jonathan Byers – Just Because People Tell You… (0:04)
11. Joy Division – Atmosphere (4:34)
12. Joyce Byers – Maybe I’m Crazy… (0:11)
13. Olivia Newton-John – Twist Of Fate (3:41)
14. Mike & Eleven – Says Logic (0:07)
15. The Psychedelic Furs – The Ghost In You (4:16)
16. Toto – Africa (4:56)
17. Jim Croce – You Don’t Mess Around With Jim (2:59)
18. Dustin & Lucas – Accident Or Not (0:13)
19. Devo – Whip It (2:38)
20. Bon Jovi – Runaway (3:51)
21. Cyndi Lauper – Time After Time (4:01)
22. The Romantics – Talking In Your Sleep (3:55)
23. Mike & Eleven – Mouthbreather (0:23)
24. Fad Gadget – Back To Nature (5:51)
25. Dustin – She’s Our Friend And She’s Crazy (0:04)
26. Scorpions – Rock You Like A Hurricane (4:14)
27. Peter Gabriel – Heroes (4:08)
28. Eleven – Friends Don’t Lie (0:04)
29. New Order – Elegia (4:56)
30. Will Byers – Will Singing The Clash (Outro) (0:15)

Лог создания рипа

Exact Audio Copy V1.3 from 2. September 2016
EAC extraction logfile from 1. February 2018, 13:33
Stranger Things / Stranger Things - Music From The Netflix Original Series
Used drive : MATSHITADVD+-RW SW830 Adapter: 0 ID: 0
Read mode : Secure
Utilize accurate stream : Yes
Defeat audio cache : Yes
Make use of C2 pointers : No
Read offset correction : 6
Overread into Lead-In and Lead-Out : No
Fill up missing offset samples with silence : Yes
Delete leading and trailing silent blocks : No
Null samples used in CRC calculations : Yes
Used interface : Installed external ASPI interface
Gap handling : Appended to previous track
Used output format : User Defined Encoder
Selected bitrate : 1024 kBit/s
Quality : High
Add ID3 tag : No
Command line compressor : C:\Program Files (x86)\Exact Audio Copy\Flac\flac.exe
Additional command line options : -8 -V -T "ARTIST=%artist%" -T "TITLE=%title%" -T "ALBUM=%albumtitle%" -T "DATE=%year%" -T "TRACKNUMBER=%tracknr%" -T "GENRE=%genre%" -T "PERFORMER=%albuminterpret%" -T "COMPOSER=%composer%" %haslyrics%--tag-from-file=LYRICS="%lyricsfile%"%haslyrics% -T "ALBUMARTIST=%albumartist%" -T "DISCNUMBER=%cdnumber%" -T "TOTALDISCS=%totalcds%" -T "TOTALTRACKS=%numtracks%" -T "COMMENT=%comment%" %source% -o %dest%
TOC of the extracted CD
Track | Start | Length | Start sector | End sector
---------------------------------------------------------
1 | 0:00.00 | 0:27.21 | 0 | 2045
2 | 0:27.21 | 4:11.43 | 2046 | 20913
3 | 4:38.64 | 3:06.07 | 20914 | 34870
4 | 7:44.71 | 0:09.34 | 34871 | 35579
5 | 7:54.30 | 2:45.01 | 35580 | 47955
6 | 10:39.31 | 4:55.25 | 47956 | 70105
7 | 15:34.56 | 0:07.35 | 70106 | 70665
8 | 15:42.16 | 3:53.58 | 70666 | 88198
9 | 19:35.74 | 3:28.66 | 88199 | 103864
10 | 23:04.65 | 0:04.00 | 103865 | 104164
11 | 23:08.65 | 4:07.53 | 104165 | 122742
12 | 27:16.43 | 0:11.08 | 122743 | 123575
13 | 27:27.51 | 3:37.04 | 123576 | 139854
14 | 31:04.55 | 0:06.45 | 139855 | 140349
15 | 31:11.25 | 4:15.58 | 140350 | 159532
16 | 35:27.08 | 4:56.30 | 159533 | 181762
17 | 40:23.38 | 2:59.29 | 181763 | 195216
18 | 43:22.67 | 0:12.73 | 195217 | 196189
19 | 43:35.65 | 2:38.48 | 196190 | 208087
20 | 46:14.38 | 3:50.52 | 208088 | 225389
21 | 50:05.15 | 3:57.32 | 225390 | 243196
22 | 54:02.47 | 3:55.39 | 243197 | 260860
23 | 57:58.11 | 0:22.38 | 260861 | 262548
24 | 58:20.49 | 5:48.00 | 262549 | 288648
25 | 64:08.49 | 0:04.01 | 288649 | 288949
26 | 64:12.50 | 4:14.26 | 288950 | 308025
27 | 68:27.01 | 4:03.20 | 308026 | 326270
28 | 72:30.21 | 0:04.28 | 326271 | 326598
29 | 72:34.49 | 4:55.31 | 326599 | 348754
30 | 77:30.05 | 0:15.00 | 348755 | 349879
Track 1
Filename C:\temp\Stranger Things - Music From The Netflix Original Series\01 - Stranger Things - Intro - Will Singing The Clash (Dialogue).wav
Pre-gap length 0:00:02.00
Peak level 40.7 %
Extraction speed 2.2 X
Track quality 100.0 %
Test CRC 92B7A516
Copy CRC 92B7A516
Accurately ripped (confidence 7) [DA2A8163] (AR v2)
Copy OK
Track 2
Filename C:\temp\Stranger Things - Music From The Netflix Original Series\02 - The Police - Every Breath You Take.wav
Peak level 99.8 %
Extraction speed 4.7 X
Track quality 100.0 %
Test CRC 651CD967
Copy CRC 651CD967
Accurately ripped (confidence 7) [283E4433] (AR v2)
Copy OK
Track 3
Filename C:\temp\Stranger Things - Music From The Netflix Original Series\03 - The Clash - Should I Stay Or Should I Go.wav
Peak level 99.8 %
Extraction speed 5.1 X
Track quality 100.0 %
Test CRC 564587EC
Copy CRC 564587EC
Accurately ripped (confidence 7) [288AEC4A] (AR v2)
Copy OK
Track 4
Filename C:\temp\Stranger Things - Music From The Netflix Original Series\04 - Stranger Things - Coffee And Contemplation (Dialogue).wav
Peak level 58.0 %
Extraction speed 1.2 X
Track quality 100.0 %
Test CRC 67B45D91
Copy CRC 67B45D91
Accurately ripped (confidence 7) [FBA57734] (AR v2)
Copy OK
Track 5
Filename C:\temp\Stranger Things - Music From The Netflix Original Series\05 - The Bangles - Hazy Shade Of Winter.wav
Peak level 98.4 %
Extraction speed 4.1 X
Track quality 99.9 %
Test CRC 71CC2F8B
Copy CRC 71CC2F8B
Accurately ripped (confidence 7) [C9CBDDB3] (AR v2)
Copy OK
Track 6
Filename C:\temp\Stranger Things - Music From The Netflix Original Series\06 - Echo & The Bunnymen - Nocturnal Me.wav
Peak level 99.2 %
Extraction speed 6.0 X
Track quality 100.0 %
Test CRC 54B0C42A
Copy CRC 54B0C42A
Accurately ripped (confidence 7) [06939334] (AR v2)
Copy OK
Track 7
Filename C:\temp\Stranger Things - Music From The Netflix Original Series\07 - Stranger Things - Bring Him Home (Dialogue).wav
Peak level 69.0 %
Extraction speed 1.1 X
Track quality 100.0 %
Test CRC EDA106FE
Copy CRC EDA106FE
Accurately ripped (confidence 7) [B4D0432D] (AR v2)
Copy OK
Track 8
Filename C:\temp\Stranger Things - Music From The Netflix Original Series\08 - Corey Hart - Sunglasses At Night.wav
Peak level 99.8 %
Extraction speed 6.2 X
Track quality 100.0 %
Test CRC 995612CA
Copy CRC 995612CA
Accurately ripped (confidence 7) [B81494C8] (AR v2)
Copy OK
Track 9
Filename C:\temp\Stranger Things - Music From The Netflix Original Series\09 - Duran Duran - Girls On Film.wav
Peak level 99.7 %
Extraction speed 6.3 X
Track quality 100.0 %
Test CRC 6ABCEAE4
Copy CRC 6ABCEAE4
Accurately ripped (confidence 7) [4008D3E2] (AR v2)
Copy OK
Track 10
Filename C:\temp\Stranger Things - Music From The Netflix Original Series\10 - Stranger Things - Just Because People Tell You (Dialogue).wav
Peak level 55.3 %
Extraction speed 0.3 X
Track quality 97.2 %
Test CRC BE5CDAD2
Copy CRC BE5CDAD2
Accurately ripped (confidence 2) [46CF3A2D] (AR v2)
Copy OK
Track 11
Filename C:\temp\Stranger Things - Music From The Netflix Original Series\11 - Joy Division - Atmosphere.wav
Peak level 99.8 %
Extraction speed 6.9 X
Track quality 100.0 %
Test CRC 1E11DF33
Copy CRC 1E11DF33
Accurately ripped (confidence 7) [9C2337E2] (AR v2)
Copy OK
Track 12
Filename C:\temp\Stranger Things - Music From The Netflix Original Series\12 - Stranger Things - Maybe I Am Crazy (Dialogue).wav
Peak level 67.7 %
Extraction speed 1.9 X
Track quality 100.0 %
Test CRC 05CB20E1
Copy CRC 05CB20E1
Accurately ripped (confidence 7) [95DCE783] (AR v2)
Copy OK
Track 13
Filename C:\temp\Stranger Things - Music From The Netflix Original Series\13 - Olivia - Twist Of Fate.wav
Peak level 99.8 %
Extraction speed 7.0 X
Track quality 100.0 %
Test CRC DFB60AA4
Copy CRC DFB60AA4
Accurately ripped (confidence 7) [730EE2E4] (AR v2)
Copy OK
Track 14
Filename C:\temp\Stranger Things - Music From The Netflix Original Series\14 - Stranger Things - Says Logic (Dialogue).wav
Peak level 79.9 %
Extraction speed 1.2 X
Track quality 100.0 %
Test CRC 1CC60F8C
Copy CRC 1CC60F8C
Accurately ripped (confidence 7) [65904028] (AR v2)
Copy OK
Track 15
Filename C:\temp\Stranger Things - Music From The Netflix Original Series\15 - The Psychedelic Furs - The Ghost In You.wav
Peak level 99.8 %
Extraction speed 7.5 X
Track quality 100.0 %
Test CRC 5A7B4413
Copy CRC 5A7B4413
Accurately ripped (confidence 7) [51F7CC5D] (AR v2)
Copy OK
Track 16
Filename C:\temp\Stranger Things - Music From The Netflix Original Series\16 - Toto - Africa.wav
Peak level 89.0 %
Extraction speed 7.8 X
Track quality 100.0 %
Test CRC 035DAB19
Copy CRC 035DAB19
Accurately ripped (confidence 7) [0184A8B9] (AR v2)
Copy OK
Track 17
Filename C:\temp\Stranger Things - Music From The Netflix Original Series\17 - Jim Croce - You Don't Mess Around With Jim.wav
Peak level 98.9 %
Extraction speed 7.7 X
Track quality 100.0 %
Test CRC 41978C27
Copy CRC 41978C27
Accurately ripped (confidence 7) [8E85FE7E] (AR v2)
Copy OK
Track 18
Filename C:\temp\Stranger Things - Music From The Netflix Original Series\18 - Stranger Things - Accident Or Not (Dialogue).wav
Peak level 68.1 %
Extraction speed 1.0 X
Track quality 99.1 %
Test CRC 113783F9
Copy CRC 113783F9
Accurately ripped (confidence 7) [716707E4] (AR v2)
Copy OK
Track 19
Filename C:\temp\Stranger Things - Music From The Netflix Original Series\19 - Devo - Whip It.wav
Peak level 99.8 %
Extraction speed 7.5 X
Track quality 100.0 %
Test CRC CAB24004
Copy CRC CAB24004
Accurately ripped (confidence 7) [6412A7EC] (AR v2)
Copy OK
Track 20
Filename C:\temp\Stranger Things - Music From The Netflix Original Series\20 - Bon Jovi - Runaway.wav
Peak level 70.5 %
Extraction speed 8.2 X
Track quality 100.0 %
Test CRC 318D19C3
Copy CRC 318D19C3
Accurately ripped (confidence 7) [1AC4F982] (AR v2)
Copy OK
Track 21
Filename C:\temp\Stranger Things - Music From The Netflix Original Series\21 - Cyndi Lauper - Time After Time.wav
Peak level 99.8 %
Extraction speed 8.6 X
Track quality 100.0 %
Test CRC F36AEBB6
Copy CRC F36AEBB6
Accurately ripped (confidence 7) [6CF1A65A] (AR v2)
Copy OK
Track 22
Filename C:\temp\Stranger Things - Music From The Netflix Original Series\22 - The Romantics - Talking In Your Sleep.wav
Peak level 99.8 %
Extraction speed 8.7 X
Track quality 100.0 %
Test CRC 517DD4E0
Copy CRC 517DD4E0
Accurately ripped (confidence 7) [8FF1E15D] (AR v2)
Copy OK
Track 23
Filename C:\temp\Stranger Things - Music From The Netflix Original Series\23 - Stranger Things - Mouthbreather (Dialogue).wav
Peak level 50.0 %
Extraction speed 3.6 X
Track quality 100.0 %
Test CRC 78E4EA57
Copy CRC 78E4EA57
Accurately ripped (confidence 7) [D96B163B] (AR v2)
Copy OK
Track 24
Filename C:\temp\Stranger Things - Music From The Netflix Original Series\24 - Fad Gadget - Back To Nature.wav
Peak level 71.1 %
Extraction speed 9.2 X
Track quality 100.0 %
Test CRC E764D36D
Copy CRC E764D36D
Accurately ripped (confidence 7) [3C094203] (AR v2)
Copy OK
Track 25
Filename C:\temp\Stranger Things - Music From The Netflix Original Series\25 - Stranger Things - She's Our Friend And She's Crazy (Dialogue).wav
Peak level 58.0 %
Extraction speed 0.9 X
Track quality 100.0 %
Test CRC 213ABEC5
Copy CRC 213ABEC5
Accurately ripped (confidence 2) [EF86F7BC] (AR v2)
Copy OK
Track 26
Filename C:\temp\Stranger Things - Music From The Netflix Original Series\26 - Scorpions - Rock You Like A Hurricane.wav
Peak level 75.0 %
Extraction speed 9.4 X
Track quality 100.0 %
Test CRC FF611221
Copy CRC FF611221
Accurately ripped (confidence 7) [E0F1592C] (AR v2)
Copy OK
Track 27
Filename C:\temp\Stranger Things - Music From The Netflix Original Series\27 - Peter Gabriel - Heroes.wav
Peak level 99.8 %
Extraction speed 9.2 X
Track quality 100.0 %
Test CRC 0048799F
Copy CRC 0048799F
Accurately ripped (confidence 7) [DD9052F2] (AR v2)
Copy OK
Track 28
Filename C:\temp\Stranger Things - Music From The Netflix Original Series\28 - Stranger Things - Friends Dont Lie (Dialogue).wav
Peak level 20.1 %
Extraction speed 1.2 X
Track quality 100.0 %
Test CRC C7F756AB
Copy CRC C7F756AB
Accurately ripped (confidence 2) [E9CB0677] (AR v2)
Copy OK
Track 29
Filename C:\temp\Stranger Things - Music From The Netflix Original Series\29 - New Order - Elegia.wav
Peak level 99.8 %
Extraction speed 9.9 X
Track quality 100.0 %
Test CRC 9D14F01A
Copy CRC 9D14F01A
Accurately ripped (confidence 7) [0E4A6D33] (AR v2)
Copy OK
Track 30
Filename C:\temp\Stranger Things - Music From The Netflix Original Series\30 - Stranger Things - Outro - Will Singing The Clash (Dialogue).wav
Peak level 31.2 %
Extraction speed 3.2 X
Track quality 100.0 %
Test CRC BF4FEA98
Copy CRC BF4FEA98
Accurately ripped (confidence 7) [C5CE64FB] (AR v2)
Copy OK
All tracks accurately ripped
No errors occurred
End of status report
---- CUETools DB Plugin V2.1.6
[CTDB TOCID: ZtZBlRVtagDe_Vib3zjMN6g84YM-] found
Submit result: ZtZBlRVtagDe_Vib3zjMN6g84YM- has been confirmed
Track | CTDB Status
1 | (70/70) Accurately ripped
2 | (70/70) Accurately ripped
3 | (70/70) Accurately ripped
4 | (70/70) Accurately ripped
5 | (70/70) Accurately ripped
6 | (70/70) Accurately ripped
7 | (70/70) Accurately ripped
8 | (70/70) Accurately ripped
9 | (70/70) Accurately ripped
10 | (70/70) Accurately ripped
11 | (70/70) Accurately ripped
12 | (70/70) Accurately ripped
13 | (70/70) Accurately ripped
14 | (70/70) Accurately ripped
15 | (70/70) Accurately ripped
16 | (70/70) Accurately ripped
17 | (70/70) Accurately ripped
18 | (70/70) Accurately ripped
19 | (70/70) Accurately ripped
20 | (70/70) Accurately ripped
21 | (70/70) Accurately ripped
22 | (70/70) Accurately ripped
23 | (70/70) Accurately ripped
24 | (70/70) Accurately ripped
25 | (70/70) Accurately ripped
26 | (70/70) Accurately ripped
27 | (69/70) Accurately ripped
28 | (70/70) Accurately ripped
29 | (70/70) Accurately ripped
30 | (70/70) Accurately ripped
==== Log checksum AC7A11A2DF7F0F98FA63540595C492C5F2680F97F96D865C46039410436AE6D7 ====

Содержание индексной карты (.CUE)

REM GENRE Soundtrack
REM DATE 2017
REM DISCID C412391E
REM COMMENT "ExactAudioCopy v1.3"
PERFORMER "Stranger Things"
TITLE "Stranger Things - Music From The Netflix Original Series"
REM COMPOSER ""
FILE "01 - Stranger Things - Intro - Will Singing The Clash (Dialogue).wav" WAVE
TRACK 01 AUDIO
TITLE "Intro - Will Singing The Clash (Dialogue)"
PERFORMER "Stranger Things"
REM COMPOSER ""
ISRC USQX91702032
INDEX 01 00:00:00
FILE "02 - The Police - Every Breath You Take.wav" WAVE
TRACK 02 AUDIO
TITLE "Every Breath You Take"
PERFORMER "The Police"
REM COMPOSER ""
ISRC GBAAM8300001
INDEX 01 00:00:00
FILE "03 - The Clash - Should I Stay Or Should I Go.wav" WAVE
TRACK 03 AUDIO
TITLE "Should I Stay Or Should I Go"
PERFORMER "The Clash"
REM COMPOSER ""
ISRC GBARL1200670
INDEX 01 00:00:00
FILE "04 - Stranger Things - Coffee And Contemplation (Dialogue).wav" WAVE
TRACK 04 AUDIO
TITLE "Coffee And Contemplation (Dialogue)"
PERFORMER "Stranger Things"
REM COMPOSER ""
ISRC USQX91702033
INDEX 01 00:00:00
FILE "05 - The Bangles - Hazy Shade Of Winter.wav" WAVE
TRACK 05 AUDIO
TITLE "Hazy Shade Of Winter"
PERFORMER "The Bangles"
REM COMPOSER ""
ISRC USSM19802609
INDEX 01 00:00:00
FILE "06 - Echo & The Bunnymen - Nocturnal Me.wav" WAVE
TRACK 06 AUDIO
TITLE "Nocturnal Me"
PERFORMER "Echo & The Bunnymen"
REM COMPOSER ""
ISRC GBAHT8403645
INDEX 01 00:00:00
FILE "07 - Stranger Things - Bring Him Home (Dialogue).wav" WAVE
TRACK 07 AUDIO
TITLE "Bring Him Home (Dialogue)"
PERFORMER "Stranger Things"
REM COMPOSER ""
ISRC USQX91702034
INDEX 01 00:00:00
FILE "08 - Corey Hart - Sunglasses At Night.wav" WAVE
TRACK 08 AUDIO
TITLE "Sunglasses At Night"
PERFORMER "Corey Hart"
REM COMPOSER ""
ISRC USCA28400142
INDEX 01 00:00:00
FILE "09 - Duran Duran - Girls On Film.wav" WAVE
TRACK 09 AUDIO
TITLE "Girls On Film"
PERFORMER "Duran Duran"
REM COMPOSER ""
ISRC GBAYE8100039
INDEX 01 00:00:00
FILE "10 - Stranger Things - Just Because People Tell You (Dialogue).wav" WAVE
TRACK 10 AUDIO
TITLE "Just Because People Tell You (Dialogue)"
PERFORMER "Stranger Things"
REM COMPOSER ""
ISRC USQX91702035
INDEX 01 00:00:00
FILE "11 - Joy Division - Atmosphere.wav" WAVE
TRACK 11 AUDIO
TITLE "Atmosphere"
PERFORMER "Joy Division"
REM COMPOSER ""
ISRC GBAAP9700187
INDEX 01 00:00:00
FILE "12 - Stranger Things - Maybe I Am Crazy (Dialogue).wav" WAVE
TRACK 12 AUDIO
TITLE "Maybe I Am Crazy (Dialogue)"
PERFORMER "Stranger Things"
REM COMPOSER ""
ISRC USQX91702036
INDEX 01 00:00:00
FILE "13 - Olivia - Twist Of Fate.wav" WAVE
TRACK 13 AUDIO
TITLE "Twist Of Fate"
PERFORMER "Olivia"
REM COMPOSER ""
ISRC USMC18314846
INDEX 01 00:00:00
FILE "14 - Stranger Things - Says Logic (Dialogue).wav" WAVE
TRACK 14 AUDIO
TITLE "Says Logic (Dialogue)"
PERFORMER "Stranger Things"
REM COMPOSER ""
ISRC USQX91702037
INDEX 01 00:00:00
FILE "15 - The Psychedelic Furs - The Ghost In You.wav" WAVE
TRACK 15 AUDIO
TITLE "The Ghost In You"
PERFORMER "The Psychedelic Furs"
REM COMPOSER ""
ISRC GBBBN8400013
INDEX 01 00:00:00
FILE "16 - Toto - Africa.wav" WAVE
TRACK 16 AUDIO
TITLE "Africa"
PERFORMER "Toto"
REM COMPOSER ""
ISRC USSM19801941
INDEX 01 00:00:00
FILE "17 - Jim Croce - You Don't Mess Around With Jim.wav" WAVE
TRACK 17 AUDIO
TITLE "You Don't Mess Around With Jim"
PERFORMER "Jim Croce"
REM COMPOSER ""
ISRC AUBM01000194
INDEX 01 00:00:00
FILE "18 - Stranger Things - Accident Or Not (Dialogue).wav" WAVE
TRACK 18 AUDIO
TITLE "Accident Or Not (Dialogue)"
PERFORMER "Stranger Things"
REM COMPOSER ""
ISRC USQX91702038
INDEX 01 00:00:00
FILE "19 - Devo - Whip It.wav" WAVE
TRACK 19 AUDIO
TITLE "Whip It"
PERFORMER "Devo"
REM COMPOSER ""
ISRC GBAAA8000030
INDEX 01 00:00:00
FILE "20 - Bon Jovi - Runaway.wav" WAVE
TRACK 20 AUDIO
TITLE "Runaway"
PERFORMER "Bon Jovi"
REM COMPOSER ""
ISRC USPR39402231
INDEX 01 00:00:00
FILE "21 - Cyndi Lauper - Time After Time.wav" WAVE
TRACK 21 AUDIO
TITLE "Time After Time"
PERFORMER "Cyndi Lauper"
REM COMPOSER ""
ISRC USSM18300650
INDEX 01 00:00:00
FILE "22 - The Romantics - Talking In Your Sleep.wav" WAVE
TRACK 22 AUDIO
TITLE "Talking In Your Sleep"
PERFORMER "The Romantics"
REM COMPOSER ""
ISRC USSM18300249
INDEX 01 00:00:00
FILE "23 - Stranger Things - Mouthbreather (Dialogue).wav" WAVE
TRACK 23 AUDIO
TITLE "Mouthbreather (Dialogue)"
PERFORMER "Stranger Things"
REM COMPOSER ""
ISRC USQX91702039
INDEX 01 00:00:00
FILE "24 - Fad Gadget - Back To Nature.wav" WAVE
TRACK 24 AUDIO
TITLE "Back To Nature"
PERFORMER "Fad Gadget"
REM COMPOSER ""
ISRC GBAJH0502301
INDEX 01 00:00:00
FILE "25 - Stranger Things - She's Our Friend And She's Crazy (Dialogue).wav" WAVE
TRACK 25 AUDIO
TITLE "She's Our Friend And She's Crazy (Dialogue)"
PERFORMER "Stranger Things"
REM COMPOSER ""
ISRC USQX91702040
INDEX 01 00:00:00
FILE "26 - Scorpions - Rock You Like A Hurricane.wav" WAVE
TRACK 26 AUDIO
TITLE "Rock You Like A Hurricane"
PERFORMER "Scorpions"
REM COMPOSER ""
ISRC DEE861101522
INDEX 01 00:00:00
FILE "27 - Peter Gabriel - Heroes.wav" WAVE
TRACK 27 AUDIO
TITLE "Heroes"
PERFORMER "Peter Gabriel"
REM COMPOSER ""
ISRC GBCPB0900622
INDEX 01 00:00:00
FILE "28 - Stranger Things - Friends Dont Lie (Dialogue).wav" WAVE
TRACK 28 AUDIO
TITLE "Friends Dont Lie (Dialogue)"
PERFORMER "Stranger Things"
REM COMPOSER ""
ISRC USQX91702041
INDEX 01 00:00:00
FILE "29 - New Order - Elegia.wav" WAVE
TRACK 29 AUDIO
TITLE "Elegia"
PERFORMER "New Order"
REM COMPOSER ""
ISRC GBCRL0800374
INDEX 01 00:00:00
FILE "30 - Stranger Things - Outro - Will Singing The Clash (Dialogue).wav" WAVE
TRACK 30 AUDIO
TITLE "Outro - Will Singing The Clash (Dialogue)"
PERFORMER "Stranger Things"
REM COMPOSER ""
ISRC USQX91702042
INDEX 01 00:00:00
[cybertorrent.ru].t39941.torrent 
Торрент: Зарегистрирован [ 2018-05-17 15:45 ] · DD5326D3894FDE3A6583865E2D33329FD98B0CA5

Скачать .torrent

Скачать

23 KB

Статус: проверено
Скачан: 0 раз
Размер: 504 MB
terms.php
[Профиль] [ЛС]
Показать сообщения:    
Ответить на тему

Текущее время: 19-Фев 23:39

Часовой пояс: UTC + 3



Вы не можете начинать темы
Вы не можете отвечать на сообщения
Вы не можете редактировать свои сообщения
Вы не можете удалять свои сообщения
Вы не можете голосовать в опросах
Вы не можете прикреплять файлы к сообщениям
Вы можете скачивать файлы