Статистика раздачи
Размер:  746 MB   |    Зарегистрирован:  3 месяца 8 дней   |    Скачан:  0 раз
Сидов:  27  [  0 KB/s  ]  
 
   
 
 

lopster ®

Пол:
Не указан
Стаж:
3 месяца 8 дней
Сообщений:
612

Напарник
«Новорождён и очень опасен»
Жанр: комедия, приключения
Год выпуска: 2017
Продолжительность: 01:32:35
Режиссер: Александр Андрющенко
В ролях: Сергей Гармаш, Андрей Назимов, Лиза Арзамасова, Ксения Лаврова-Глинка, Ян Цапник, Филипп Яицкий, Андрей Золотарев, Сахат Дурсунов, Евгений Коряковский, Юнчен Жуань, Ян Гэ, Яна Кошкина
Описание:
Неудачная спецоперация заканчивается для майора Хромова переселением в тело маленького ребенка. И всему виной проклятие гадалки! Но даже пересев из полицейской машины в детскую коляску, он умудряется доставить немало хлопот преступному синдикату на Дальнем Востоке. При этом мама ребенка не подозревает, что ее сын способен вести жесткие допросы, а папа вынужден стать невольным «напарником» Хромова. Ведь для того, чтобы вернуть все на свои места, им предстоит закончить спецоперацию, а значит, отец с младенцем начинают охоту на самого опасного главаря местной мафии.

Автор рипа: stalkerok
Сэмпл
Качество видео: WEB-DLRip-AVC [WEB-DL 1080p]
Формат видео: MKV
Видео: 1007 Кбит/сек, 848*356 (2,40:1), в 24,000 кадра/сек, AVC
Аудио: русский, 118 Кбит/сек, 48,0 КГц, 2 канала, AAC (LC) [iTunes]
Навигация по главам: есть

x264/MediaInfo

x264 [info]: frame I:1575 Avg QP:17.50 size: 31870
x264 [info]: frame P:33738 Avg QP:20.40 size: 10493
x264 [info]: frame B:98018 Avg QP:22.85 size: 3009
Общее
Уникальный идентификатор : 223946614772893269615118175216770804189 (0xA87A8C9403CAC57CB45E848D953CE9DD)
Полное имя : M:\!Rips2017\Naparnik\Naparnik.WEB-DLRip-AVC.RUS..stalkerok.new-team.mkv
Формат : Matroska
Версия формата : Version 4 / Version 2
Размер файла : 746 Мбайт
Продолжительность : 1 ч. 32 м.
Общий поток : 1127 Кбит/сек
Название фильма : Напарник (2017) (Rip by stalkerok)
Дата кодирования : UTC 2017-10-12 08:12:25
Программа кодирования : mkvmerge v8.6.1 ('Flying') 64bit
Библиотека кодирования : libebml v1.3.3 + libmatroska v1.4.4
Видео
Идентификатор : 1
Формат : AVC
Формат/Информация : Advanced Video Codec
Профиль формата : High@L4.1
Параметр CABAC формата : Да
Параметр ReFrames формата : 16 кадров
Идентификатор кодека : V_MPEG4/ISO/AVC
Продолжительность : 1 ч. 32 м.
Битрейт : 1007 Кбит/сек
Ширина : 848 пикселей
Высота : 356 пикселей
Соотношение сторон : 2,40:1
Режим частоты кадров : Постоянный
Частота кадров : 24,000 кадра/сек
Цветовое пространство : YUV
Субдискретизация насыщенности : 4:2:0
Битовая глубина : 8 бит
Тип развёртки : Прогрессивная
Бит/(Пиксели*Кадры) : 0.139
Размер потока : 667 Мбайт (89%)
Заголовок : Напарник (2017) (Rip by stalkerok)
Библиотека кодирования : x264 core 150 r2833kMod df79067
Настройки программы : cabac=1 / ref=16 / deblock=1:-2:-1 / analyse=0x3:0x133 / me=umh / subme=11 / psy=1 / fade_compensate=0.00 / psy_rd=1.00:0.00 / mixed_ref=1 / me_range=32 / chroma_me=1 / trellis=2 / 8x8dct=1 / cqm=0 / deadzone=21,11 / fast_pskip=0 / chroma_qp_offset=-2 / threads=11 / lookahead_threads=2 / sliced_threads=0 / nr=0 / decimate=1 / interlaced=0 / bluray_compat=0 / constrained_intra=0 / bframes=16 / b_pyramid=2 / b_adapt=2 / b_bias=0 / direct=3 / weightb=1 / open_gop=0 / weightp=2 / keyint=240 / keyint_min=23 / scenecut=40 / intra_refresh=0 / rc_lookahead=60 / rc=crf / mbtree=0 / crf=19.5000 / qcomp=0.65 / qpmin=0 / qpmax=69 / qpstep=4 / vbv_maxrate=50000 / vbv_bufsize=62500 / crf_max=0.0 / nal_hrd=none / filler=0 / ip_ratio=1.40 / pb_ratio=1.30 / aq=3:0.90 / zones=123506,125754,q=30/125755,133330,q=33
Default : Да
Forced : Нет
Аудио
Идентификатор : 2
Формат : AAC
Формат/Информация : Advanced Audio Codec
Профиль формата : LC
Идентификатор кодека : A_AAC
Продолжительность : 1 ч. 32 м.
Битрейт : 118 Кбит/сек
Каналы : 2 канала
Расположение каналов : Front: L R
Частота : 48,0 КГц
Частота кадров : 46,875 кадров/сек (1024 spf)
Метод сжатия : С потерями
Задержка видео : 9 мс.
Размер потока : 78,1 Мбайт (10%)
Язык : Russian
Default : Да
Forced : Нет
Меню
00:00:00.000 : en:Глава 1
00:07:11.958 : en:Глава 2
00:13:16.041 : en:Глава 3
00:20:34.041 : en:Глава 4
00:27:24.874 : en:Глава 5
00:32:59.874 : en:Глава 6
00:38:10.749 : en:Глава 7
00:45:00.332 : en:Глава 8
00:49:46.832 : en:Глава 9
00:57:03.165 : en:Глава 10
01:03:57.123 : en:Глава 11
01:10:10.123 : en:Глава 12
01:16:10.081 : en:Глава 13
01:20:38.581 : en:Глава 14

Скриншоты

[cybertorrent.ru].t400.torrent 
Торрент: Зарегистрирован [ 2018-02-15 15:48 ] · 65EFA718A239E1F3C0240F024FEB4D35269AE2BB

Скачать .torrent

Скачать

15 KB

Статус: проверено
Скачан: 0 раз
Размер: 746 MB
Профиль [ЛС]
Показать сообщения:    

Текущее время: 23-Май 16:38

Часовой пояс: UTC ± 0



Вы не можете начинать темы
Вы не можете отвечать на сообщения
Вы не можете редактировать свои сообщения
Вы не можете удалять свои сообщения
Вы не можете голосовать в опросах
Вы не можете прикреплять файлы к сообщениям
Вы можете скачивать файлы