Статистика раздачи
Размер:  1,44 GB   |    Зарегистрирован:  3 месяца 7 дней   |    Скачан:  0 раз
Сидов:  27  [  0 KB/s  ]  
 
   
 
 

lopster ®

Пол:
Не указан
Стаж:
3 месяца 7 дней
Сообщений:
612

Вурдалаки
«Для любви смерти нет…»
Жанр: триллер, фэнтези
Год выпуска: 2017
Продолжительность: 01:21:54
Режиссер: Сергей Гинзбург
В ролях: Михаил Пореченков, Константин Крюков, Аглая Шиловская, Андрей Руденский, Михаил Жигалов, Игорь Хрипунов, Анатолий Гущин, Константин Милованов, Анна Арланова, Юлия Ауг, Екатерина Стулова, Лера Арефьева
Описание:
Россия, 18 век. На краю Руси, в Карпатских горах, стоит Спасский монастырь, куда был сослан духовник императрицы Елизаветы монах Лавр. Какие тайны он унес с собой из столичного Петербурга, никто не ведал. Да и край, в который он был сослан, издревле считался неспокойным, о нем слагали легенды и рассказывали их только шепотом. Говорили, мол, что в тех краях живет нечистая сила, оставшаяся там еще со времен турецких набегов...

Автор рипа: stalkerok
Сэмпл
Качество видео: BDRip-AVC [Вурдалаки (2017) Blu-ray GER 1080p]
Формат видео: MKV
Видео: 2073 Кбит/сек, 1082x452 (2.40:1), 23,976 кадр/сек, AVC
Аудио: русский, 448 Кбит/сек, 48 КГц, 5.1, AC3 Blu-ray GER
Навигация по главам: есть

x264/MediaInfo

x264 [info]: frame I:897 Avg QP:15.92 size: 66186
x264 [info]: frame P:31187 Avg QP:18.45 size: 21098
x264 [info]: frame B:85746 Avg QP:21.49 size: 6486
General
Unique ID : 206601095657336230976663265456020622606 (0x9B6DEC75703A0CA494D22899B2E58D0E)
Complete name : M:\!Rips2017\Vurdalaki\Vurdalaki.2017.BDRip-AVC.RUS.stalkerok.new-team.mkv
Format : Matroska
Format version : Version 4 / Version 2
File size : 1.44 GiB
Duration : 1 h 21 min
Overall bit rate : 2 523 kb/s
Movie name : Вурдалаки (2017) (Rip by stalkerok)
Encoded date : UTC 2017-10-12 13:27:51
Writing application : mkvmerge v8.6.1 ('Flying') 64bit
Writing library : libebml v1.3.3 + libmatroska v1.4.4
Video
ID : 1
Format : AVC
Format/Info : Advanced Video Codec
Format profile : High@L4.1
Format settings, CABAC : Yes
Format settings, ReFrames : 13 frames
Codec ID : V_MPEG4/ISO/AVC
Duration : 1 h 21 min
Bit rate : 2 073 kb/s
Width : 1 082 pixels
Height : 452 pixels
Display aspect ratio : 2.40:1
Frame rate mode : Constant
Frame rate : 23.976 (24000/1001) FPS
Color space : YUV
Chroma subsampling : 4:2:0
Bit depth : 8 bits
Scan type : Progressive
Bits/(Pixel*Frame) : 0.177
Stream size : 1.19 GiB (82%)
Title : Вурдалаки (2017) (Rip by stalkerok)
Writing library : x264 core 150 r2833kMod df79067
Encoding settings : cabac=1 / ref=13 / deblock=1:-3:-2 / analyse=0x3:0x133 / me=umh / subme=11 / psy=1 / fade_compensate=0.00 / psy_rd=1.00:0.00 / mixed_ref=1 / me_range=32 / chroma_me=1 / trellis=2 / 8x8dct=1 / cqm=0 / deadzone=21,11 / fast_pskip=0 / chroma_qp_offset=-2 / threads=12 / lookahead_threads=3 / sliced_threads=0 / nr=0 / decimate=1 / interlaced=0 / bluray_compat=0 / constrained_intra=0 / bframes=13 / b_pyramid=2 / b_adapt=2 / b_bias=0 / direct=3 / weightb=1 / open_gop=0 / weightp=2 / keyint=240 / keyint_min=23 / scenecut=40 / intra_refresh=0 / rc_lookahead=60 / rc=crf / mbtree=0 / crf=18.4000 / qcomp=0.65 / qpmin=0 / qpmax=69 / qpstep=4 / vbv_maxrate=50000 / vbv_bufsize=62500 / crf_max=0.0 / nal_hrd=none / filler=0 / ip_ratio=1.40 / pb_ratio=1.30 / aq=3:0.80 / zones=114832,117829,q=33
Default : Yes
Forced : No
Audio
ID : 2
Format : AC-3
Format/Info : Audio Coding 3
Mode extension : CM (complete main)
Format settings, Endianness : Big
Codec ID : A_AC3
Duration : 1 h 21 min
Bit rate mode : Constant
Bit rate : 448 kb/s
Channel(s) : 6 channels
Channel positions : Front: L C R, Side: L R, LFE
Sampling rate : 48.0 kHz
Frame rate : 31.250 FPS (1536 spf)
Compression mode : Lossy
Stream size : 262 MiB (18%)
Language : Russian
Default : Yes
Forced : No
Menu
00:00:00.000 : en:Chapter 1
00:02:52.088 : en:Chapter 2
00:07:49.469 : en:Chapter 3
00:14:20.401 : en:Chapter 4
00:23:33.412 : en:Chapter 5
00:32:06.382 : en:Chapter 6
00:39:46.384 : en:Chapter 7
00:44:49.311 : en:Chapter 8
00:50:24.604 : en:Chapter 9
01:00:24.829 : en:Chapter 10
01:10:17.213 : en:Chapter 11
01:19:49.367 : en:Chapter 12

Скриншоты

[cybertorrent.ru].t401.torrent 
Торрент: Зарегистрирован [ 2018-02-15 15:48 ] · 331A1DF71156F3306C2FD958C6F02C229CCC5B87

Скачать .torrent

Скачать

15 KB

Статус: проверено
Скачан: 0 раз
Размер: 1,44 GB
Профиль [ЛС]
Показать сообщения:    

Текущее время: 23-Май 07:22

Часовой пояс: UTC ± 0



Вы не можете начинать темы
Вы не можете отвечать на сообщения
Вы не можете редактировать свои сообщения
Вы не можете удалять свои сообщения
Вы не можете голосовать в опросах
Вы не можете прикреплять файлы к сообщениям
Вы можете скачивать файлы