Статистика раздачи
Размер:  778 MB   |    Зарегистрирован:  3 месяца 12 дней   |    Скачан:  0 раз
Сидов:  9  [  0 KB/s  ]   Личеров:  1  [  0 KB/s  ]  
 
   
 
 

lopster ®

Пол:
Не указан
Стаж:
3 месяца 12 дней
Сообщений:
612

Вурдалаки
«Для любви смерти нет…»
Жанр: триллер, фэнтези
Год выпуска: 2017
Продолжительность: 01:21:54
Режиссер: Сергей Гинзбург
В ролях: Михаил Пореченков, Константин Крюков, Аглая Шиловская, Андрей Руденский, Михаил Жигалов, Игорь Хрипунов, Анатолий Гущин, Константин Милованов, Анна Арланова, Юлия Ауг, Екатерина Стулова, Лера Арефьева
Описание:
Россия, 18 век. На краю Руси, в Карпатских горах, стоит Спасский монастырь, куда был сослан духовник императрицы Елизаветы монах Лавр. Какие тайны он унес с собой из столичного Петербурга, никто не ведал. Да и край, в который он был сослан, издревле считался неспокойным, о нем слагали легенды и рассказывали их только шепотом. Говорили, мол, что в тех краях живет нечистая сила, оставшаяся там еще со времен турецких набегов...

Автор рипа: stalkerok
Сэмпл
Качество видео: BDRip-AVC [Вурдалаки (2017) Blu-ray GER 1080p]
Формат видео: MKV
Видео: 1264 Кбит/сек, 876*366 (2,40:1), в 23,976 (24000/1001) кадра/сек, AVC
Аудио: русский, 62,0 Кбит/сек, 48,0 КГц / 24,0 КГц, 2 канала, AAC (HE-AAC / LC) Blu-ray GER
Навигация по главам: есть

x264/MediaInfo

x264 [info]: frame I:880 Avg QP:17.21 size: 42727
x264 [info]: frame P:29940 Avg QP:19.90 size: 13156
x264 [info]: frame B:87010 Avg QP:22.65 size: 3968
Общее
Уникальный идентификатор : 254922991612570521609798660538090000734 (0xBFC861DECD606B978B103EFF477E115E)
Полное имя : M:\!Rips2017\Vurdalaki\Vurdalaki.2017.BDRip-AVC.RUS..stalkerok.new-team.mkv
Формат : Matroska
Версия формата : Version 4 / Version 2
Размер файла : 778 Мбайт
Продолжительность : 1 ч. 21 м.
Общий поток : 1328 Кбит/сек
Название фильма : Вурдалаки (2017) (Rip by stalkerok)
Дата кодирования : UTC 2017-10-12 14:29:44
Программа кодирования : mkvmerge v8.6.1 ('Flying') 64bit
Библиотека кодирования : libebml v1.3.3 + libmatroska v1.4.4
Видео
Идентификатор : 1
Формат : AVC
Формат/Информация : Advanced Video Codec
Профиль формата : High@L4.1
Параметр CABAC формата : Да
Параметр ReFrames формата : 16 кадров
Идентификатор кодека : V_MPEG4/ISO/AVC
Продолжительность : 1 ч. 21 м.
Битрейт : 1264 Кбит/сек
Ширина : 876 пикселей
Высота : 366 пикселей
Соотношение сторон : 2,40:1
Режим частоты кадров : Постоянный
Частота кадров : 23,976 (24000/1001) кадра/сек
Цветовое пространство : YUV
Субдискретизация насыщенности : 4:2:0
Битовая глубина : 8 бит
Тип развёртки : Прогрессивная
Бит/(Пиксели*Кадры) : 0.164
Размер потока : 741 Мбайт (95%)
Заголовок : Вурдалаки (2017) (Rip by stalkerok)
Библиотека кодирования : x264 core 150 r2833kMod df79067
Настройки программы : cabac=1 / ref=16 / deblock=1:-2:-1 / analyse=0x3:0x133 / me=umh / subme=11 / psy=1 / fade_compensate=0.00 / psy_rd=1.00:0.00 / mixed_ref=1 / me_range=32 / chroma_me=1 / trellis=2 / 8x8dct=1 / cqm=0 / deadzone=21,11 / fast_pskip=0 / chroma_qp_offset=-2 / threads=11 / lookahead_threads=2 / sliced_threads=0 / nr=0 / decimate=1 / interlaced=0 / bluray_compat=0 / constrained_intra=0 / bframes=16 / b_pyramid=2 / b_adapt=2 / b_bias=0 / direct=3 / weightb=1 / open_gop=0 / weightp=2 / keyint=240 / keyint_min=23 / scenecut=40 / intra_refresh=0 / rc_lookahead=60 / rc=crf / mbtree=0 / crf=19.2000 / qcomp=0.65 / qpmin=0 / qpmax=69 / qpstep=4 / vbv_maxrate=50000 / vbv_bufsize=62500 / crf_max=0.0 / nal_hrd=none / filler=0 / ip_ratio=1.40 / pb_ratio=1.30 / aq=3:0.80 / zones=114832,117829,q=34
Default : Да
Forced : Нет
Аудио
Идентификатор : 2
Формат : AAC
Формат/Информация : Advanced Audio Codec
Профиль формата : HE-AAC / LC
Идентификатор кодека : A_AAC
Продолжительность : 1 ч. 21 м.
Битрейт : 62,0 Кбит/сек
Каналы : 2 канала
Расположение каналов : Front: L R
Частота : 48,0 КГц / 24,0 КГц
Частота кадров : 23,438 кадра/сек (1024 spf)
Метод сжатия : С потерями
Задержка видео : 31 мс.
Размер потока : 36,3 Мбайт (5%)
Язык : Russian
Default : Да
Forced : Нет
Меню
00:00:00.000 : en:Chapter 1
00:02:52.088 : en:Chapter 2
00:07:49.469 : en:Chapter 3
00:14:20.401 : en:Chapter 4
00:23:33.412 : en:Chapter 5
00:32:06.382 : en:Chapter 6
00:39:46.384 : en:Chapter 7
00:44:49.311 : en:Chapter 8
00:50:24.604 : en:Chapter 9
01:00:24.829 : en:Chapter 10
01:10:17.213 : en:Chapter 11
01:19:49.367 : en:Chapter 12

Скриншоты

[cybertorrent.ru].t402.torrent 
Торрент: Зарегистрирован [ 2018-02-15 15:48 ] · C58816228D91A5EC67645D76700F4A3620DA3F18

Скачать .torrent

Скачать

16 KB

Статус: проверено
Скачан: 0 раз
Размер: 778 MB
Профиль [ЛС]
Показать сообщения:    

Текущее время: 28-Май 08:12

Часовой пояс: UTC ± 0



Вы не можете начинать темы
Вы не можете отвечать на сообщения
Вы не можете редактировать свои сообщения
Вы не можете удалять свои сообщения
Вы не можете голосовать в опросах
Вы не можете прикреплять файлы к сообщениям
Вы можете скачивать файлы