Статистика раздачи
Размер:  6,76 GB   |    Зарегистрирован:  7 месяцев 2 дня   |    Скачан:  0 раз

Полного источника не было: Никогда

   
 

Гость ®

Пол:
Не указан

Содержанки
Год выпуска: 2019
Производство: Старт, Yellow, Black and White
Жанр: триллер, эротика
Продолжительность: ~00:54:00 серия
Субтитры: нет
Режиссёр: Константин Богомолов
В ролях: Ольга Сутулова, Дарья Мороз, Мария Фомина, Софья Заика, Сергей Бурунов, Владимир Мишуков, Александр Кузнецов, Марина Зудина, Александр Збруев, Семён Штейнберг, Пётр Скворцов, Леонид Бичевин, Ирина Старшенбаум, Александра Ребенок, Сабина Ахмедова, Игорь Гордин, Роза Хайруллина, Сергей Чонишвили, Александра Ревенко, Ксения Собчак, Светлана Бондарчук, Вадим Верник

Описание: Москва, наши дни. Город больших денег и страстей, великолепных женщин и состоятельных мужчин, светских раутов и опасных интриг. Здесь красивые девушки мечтают попасть в мир гламура, струящихся шелков и сверкающих драгоценностей, а главная светская сваха города ловко пристраивает их в надежные руки. Приехавшая в столицу Даша, искусствовед из провинции, мечтает о новой, лучшей жизни, но загадочное и жестокое происшествие изменит все.

Реклама: Нет.
Кинопоиск
Все раздачи сериала
Sample
Качество: WEBRip 1080p - Getty
Формат: MKV
Видео кодек: H.264
Аудио кодек: AC3
Видео: MPEG4 AVC Video, H264, 16:9, 1920x1080, 23.976 fps, ~6400 kbps, 0.128 bit/pixel
Аудио: AC3 Dolby Digital, 48.0 kHz, 2/0 (L,R) ch, 192 kbps

Внимание! Раздача ведётся путём добавления новых серий

Раздача ведётся путём добавления новых серий, при каждом добавлении создаётся новый торрент. Чтобы начать докачку новой серии, пользователям необходимо сделать следующее:
- Остановить скачивание.
- Удалить старый торрент у себя из клиента (старые серии удалять не надо).
- Скачать новый торрент и запустить его у себя в клиенте вместо старого, при этом указать клиенту путь в старую папку куда и должно происходить скачивание новых серий.
Ваш клиент при этом должен произвести хеширование (проверку) старой папки (если не производит сам - помогите ему сделать это), и будет докачивать только те серии которых у вас ещё нет. Старые серии при этом не удаляются, а продолжают раздаваться!
Если вы уже удалили старые серии, то предотвратить повторную закачку старых серий можно, отжав галочку в соответствующих местах при запуске нового торрента. По возможности, желательно не удалять старые серии как можно дольше, чтобы релизер не столько продолжал раздавать старые серии, а смог сконцентрироваться на новых.

MI

General
Unique ID : 233200979009320701348414632773796530462 (0xAF70DFF6653FA58A855BACB9EA70891E)
Complete name : D:\Soderzhanki.2019.WEB-DL.(1080p).Getty\Soderzhanki.e01.2019.WEB-DL.(1080p).Getty.mkv
Format : Matroska
Format version : Version 4 / Version 2
File size : 2.50 GiB
Duration : 54 min 22 s
Overall bit rate : 6 580 kb/s
Movie name : Soderzhanki.e01.2019.WEB-DL.(1080p).Getty
Encoded date : UTC 2019-03-07 13:02:34
Writing application : mkvmerge v7.8.0 ('River Man') 32bit built on Mar 27 2015 16:18:02
Writing library : libebml v1.3.1 + libmatroska v1.4.2
Video
ID : 1
Format : AVC
Format/Info : Advanced Video Codec
Format profile : High@L4
Format settings : CABAC / 4 Ref Frames
Format settings, CABAC : Yes
Format settings, ReFrames : 4 frames
Codec ID : V_MPEG4/ISO/AVC
Duration : 54 min 22 s
Bit rate : 6 386 kb/s
Width : 1 920 pixels
Height : 1 080 pixels
Display aspect ratio : 16:9
Frame rate mode : Constant
Frame rate : 23.976 (24000/1001) FPS
Color space : YUV
Chroma subsampling : 4:2:0
Bit depth : 8 bits
Scan type : Progressive
Bits/(Pixel*Frame) : 0.128
Stream size : 2.43 GiB (97%)
Default : Yes
Forced : No
Audio
ID : 2
Format : AC-3
Format/Info : Audio Coding 3
Codec ID : A_AC3
Duration : 54 min 22 s
Bit rate mode : Constant
Bit rate : 192 kb/s
Channel(s) : 2 channels
Channel positions : Front: L R
Sampling rate : 48.0 kHz
Frame rate : 31.250 FPS (1536 SPF)
Bit depth : 16 bits
Compression mode : Lossy
Stream size : 74.7 MiB (3%)
Service kind : Complete Main
Default : Yes
Forced : No

Скриншоты


[cybertorrent.ru].t403.torrent 
Торрент: Зарегистрирован [ 2019-03-18 10:04 ] · C22FB1863444F0D8BDA02E1A79BEA69C07CFB68A

Скачать .torrent

Скачать

34 KB

Статус: проверено
Скачан: 0 раз
Размер: 6,76 GB
terms.php
Показать сообщения:    

Текущее время: 20-Окт 11:14

Часовой пояс: UTC ± 0



Вы не можете начинать темы
Вы не можете отвечать на сообщения
Вы не можете редактировать свои сообщения
Вы не можете удалять свои сообщения
Вы не можете голосовать в опросах
Вы не можете прикреплять файлы к сообщениям
Вы можете скачивать файлы