Статистика раздачи
Размер:  745 MB   |    Зарегистрирован:  3 месяца 7 дней   |    Скачан:  0 раз
Сидов:  7  [  0 KB/s  ]   Личеров:  2  [  0 KB/s  ]  
 
   
 
 

lopster ®

Пол:
Не указан
Стаж:
3 месяца 7 дней
Сообщений:
612

Яма. Наши дни
«В этой профессии бывших не бывает...»
Жанр: драма
Год выпуска: 2017
Продолжительность: 01:38:43
Режиссер: Виталий Манюков
В ролях: Ольга Вяземская, Дмитрий Ушаков, Ксения Худоба, Станислав Колесниченко, Инна Королёва, Евгений Шмелев, Алексей Дьячков, Екатерина Макарова, Кирилл Крошман-Климов, Юлия Ковалевская, Екатерина Малахит, Игнат Костровский
Описание:
Основное действие фильма происходит в одном из многочисленных московских борделей. Наряду со всевозможными интригами, зритель увидит проявления любви, предательства и ненависти одновременно. Фильм о глубочайшем нравственном кризисе, который царит в нашем обществе. Со дна «Ямы» на поверхность поднимаются проблемы, которые не решаются столетиями. О них попросту не говорят. А мы решили о них прокричать! Яма. Наши дни.

Автор рипа: stalkerok
Сэмпл
Качество видео: WEB-DLRip-AVC [Jama.Nashi.dni.2017.WEB-DLRip.1080p.MediaClub]
Формат видео: MKV
Видео: 981 Кбит/сек, 896*504 (16:9), в 25,000 кадров/сек, AVC
Аудио: русский, 72,0 Кбит/сек, 48,0 КГц / 24,0 КГц, 2 канала, AAC (HE-AAC / LC)

x264/MediaInfo

x264 [info]: frame I:778 Avg QP:16.75 size: 31448
x264 [info]: frame P:34043 Avg QP:18.35 size: 10693
x264 [info]: frame B:113266 Avg QP:20.66 size: 2984
Общее
Уникальный идентификатор : 171202203739796056435897986264302012664 (0x80CC5856B028BF549E1FE1551ED2C8F8)
Полное имя : M:\!Rips2017\Jama. Nashi dni\Jama.Nashi.dni.2017.WEB-DLRip-AVC.RUS..stalkerok.new-team.mkv
Формат : Matroska
Версия формата : Version 4 / Version 2
Размер файла : 745 Мбайт
Продолжительность : 1 ч. 38 м.
Общий поток : 1055 Кбит/сек
Название фильма : Яма. Наши дни (2017) (Rip by stalkerok)
Дата кодирования : UTC 2017-10-13 11:32:03
Программа кодирования : mkvmerge v8.6.1 ('Flying') 64bit
Библиотека кодирования : libebml v1.3.3 + libmatroska v1.4.4
Видео
Идентификатор : 1
Формат : AVC
Формат/Информация : Advanced Video Codec
Профиль формата : High@L4.1
Параметр CABAC формата : Да
Параметр ReFrames формата : 16 кадров
Идентификатор кодека : V_MPEG4/ISO/AVC
Продолжительность : 1 ч. 38 м.
Битрейт : 981 Кбит/сек
Ширина : 896 пикселей
Высота : 504 пикселя
Соотношение сторон : 16:9
Режим частоты кадров : Постоянный
Частота кадров : 25,000 кадров/сек
Цветовое пространство : YUV
Субдискретизация насыщенности : 4:2:0
Битовая глубина : 8 бит
Тип развёртки : Прогрессивная
Бит/(Пиксели*Кадры) : 0.087
Размер потока : 693 Мбайт (93%)
Заголовок : Яма. Наши дни (2017) (Rip by stalkerok)
Библиотека кодирования : x264 core 150 r2833kMod df79067
Настройки программы : cabac=1 / ref=16 / deblock=1:-3:-2 / analyse=0x3:0x133 / me=umh / subme=11 / psy=1 / fade_compensate=0.00 / psy_rd=1.00:0.00 / mixed_ref=1 / me_range=32 / chroma_me=1 / trellis=2 / 8x8dct=1 / cqm=0 / deadzone=21,11 / fast_pskip=0 / chroma_qp_offset=-2 / threads=12 / lookahead_threads=3 / sliced_threads=0 / nr=0 / decimate=1 / interlaced=0 / bluray_compat=0 / constrained_intra=0 / bframes=16 / b_pyramid=2 / b_adapt=2 / b_bias=0 / direct=3 / weightb=1 / open_gop=0 / weightp=2 / keyint=250 / keyint_min=25 / scenecut=40 / intra_refresh=0 / rc_lookahead=60 / rc=crf / mbtree=0 / crf=20.4000 / qcomp=0.65 / qpmin=0 / qpmax=69 / qpstep=4 / vbv_maxrate=50000 / vbv_bufsize=62500 / crf_max=0.0 / nal_hrd=none / filler=0 / ip_ratio=1.40 / pb_ratio=1.30 / aq=3:0.90 / zones=142662,148086,q=34
Default : Да
Forced : Нет
Аудио
Идентификатор : 2
Формат : AAC
Формат/Информация : Advanced Audio Codec
Профиль формата : HE-AAC / LC
Идентификатор кодека : A_AAC
Продолжительность : 1 ч. 38 м.
Битрейт : 72,0 Кбит/сек
Каналы : 2 канала
Расположение каналов : Front: L R
Частота : 48,0 КГц / 24,0 КГц
Частота кадров : 23,438 кадра/сек (1024 spf)
Метод сжатия : С потерями
Задержка видео : 31 мс.
Размер потока : 50,8 Мбайт (7%)
Язык : Russian
Default : Да
Forced : Нет

Скриншоты

[cybertorrent.ru].t405.torrent 
Торрент: Зарегистрирован [ 2018-02-15 15:48 ] · 6141834B6BF630B90514EF4B8FF5F1B05C7919B7

Скачать .torrent

Скачать

15 KB

Статус: проверено
Скачан: 0 раз
Размер: 745 MB
Профиль [ЛС]
Показать сообщения:    

Текущее время: 23-Май 07:20

Часовой пояс: UTC ± 0



Вы не можете начинать темы
Вы не можете отвечать на сообщения
Вы не можете редактировать свои сообщения
Вы не можете удалять свои сообщения
Вы не можете голосовать в опросах
Вы не можете прикреплять файлы к сообщениям
Вы можете скачивать файлы