Статистика раздачи
Размер:  746 MB   |    Зарегистрирован:  3 месяца 10 дней   |    Скачан:  0 раз
Сидов:  6  [  0 KB/s  ]  
 
   
 
 

lopster ®

Пол:
Не указан
Стаж:
3 месяца 11 дней
Сообщений:
612

Мой убийца
«Преступление должно быть раскрыто»
Жанр: детектив, триллер
Год выпуска: 2016
Продолжительность: 01:43:00
Режиссер: Костас Марсан
В ролях: Вячеслав Лавернов, Галина Тихонова, Федот Львов, Степан Федоренко, Илья Яковлев, Дьулустан Семенов, Прокопий Данилов, Дмитрий Алексеев, Иван Мишагин, Дмитрий Трофимов, Зоя Багынанова
Описание:
Молодой оперативник Джулус расследует убийство девушки. Вскоре он находит подозреваемого, который признается в преступлении. Вроде бы дело можно закрывать, но Джулус замечает странности и нестыковки в показаниях. Главный герой, несмотря на неодобрение начальства, решает подробнее разобраться в этом деле. Цепочка событий приводит его в поселение золотодобытчиков, где наружу всплывают новые тайны погибшей девушки.

Автор рипа: stalkerok
Сэмпл
Качество видео: WEB-DLRip-AVC [Moi.ubiycha.2016.WEB-DLRip.1080p.MediaClub]
Формат видео: MKV
Видео: 921 Кбит/сек, 888*370 (2,40:1), в 25,000 кадров/сек, AVC
Аудио: русский, 90,0 Кбит/сек, 48,0 КГц / 24,0 КГц, 2 канала, AAC (HE-AAC / LC)

x264/MediaInfo

x264 [info]: frame I:876 Avg QP:17.15 size: 32352
x264 [info]: frame P:35095 Avg QP:19.16 size: 9652
x264 [info]: frame B:118539 Avg QP:21.11 size: 2907
Общее
Уникальный идентификатор : 204726989070195391286412086149177516810 (0x9A04FBDEBCC539B895ABC6D5B5ADA30A)
Полное имя : M:\!Rips2017\Moj ubijca\Moj.ubijca.2016.WEB-DLRip-AVC.RUS..stalkerok.new-team.mkv
Формат : Matroska
Версия формата : Version 4 / Version 2
Размер файла : 746 Мбайт
Продолжительность : 1 ч. 43 м.
Общий поток : 1013 Кбит/сек
Название фильма : Мой убийца (2016) (Rip by stalkerok)
Дата кодирования : UTC 2017-10-13 13:23:34
Программа кодирования : mkvmerge v8.6.1 ('Flying') 64bit
Библиотека кодирования : libebml v1.3.3 + libmatroska v1.4.4
Видео
Идентификатор : 1
Формат : AVC
Формат/Информация : Advanced Video Codec
Профиль формата : High@L4.1
Параметр CABAC формата : Да
Параметр ReFrames формата : 16 кадров
Идентификатор кодека : V_MPEG4/ISO/AVC
Продолжительность : 1 ч. 43 м.
Битрейт : 921 Кбит/сек
Ширина : 888 пикселей
Высота : 370 пикселей
Соотношение сторон : 2,40:1
Режим частоты кадров : Постоянный
Частота кадров : 25,000 кадров/сек
Цветовое пространство : YUV
Субдискретизация насыщенности : 4:2:0
Битовая глубина : 8 бит
Тип развёртки : Прогрессивная
Бит/(Пиксели*Кадры) : 0.112
Размер потока : 679 Мбайт (91%)
Заголовок : Мой убийца (2016) (Rip by stalkerok)
Библиотека кодирования : x264 core 150 r2833kMod df79067
Настройки программы : cabac=1 / ref=16 / deblock=1:-3:-2 / analyse=0x3:0x133 / me=umh / subme=11 / psy=1 / fade_compensate=0.00 / psy_rd=1.00:0.00 / mixed_ref=1 / me_range=32 / chroma_me=1 / trellis=2 / 8x8dct=1 / cqm=0 / deadzone=21,11 / fast_pskip=0 / chroma_qp_offset=-2 / threads=12 / lookahead_threads=2 / sliced_threads=0 / nr=0 / decimate=1 / interlaced=0 / bluray_compat=0 / constrained_intra=0 / bframes=16 / b_pyramid=2 / b_adapt=2 / b_bias=0 / direct=3 / weightb=1 / open_gop=0 / weightp=2 / keyint=250 / keyint_min=25 / scenecut=40 / intra_refresh=0 / rc_lookahead=60 / rc=crf / mbtree=0 / crf=19.9000 / qcomp=0.65 / qpmin=0 / qpmax=69 / qpstep=4 / vbv_maxrate=50000 / vbv_bufsize=62500 / crf_max=0.0 / nal_hrd=none / filler=0 / ip_ratio=1.40 / pb_ratio=1.30 / aq=3:0.90 / zones=147627,154509,q=33
Default : Да
Forced : Нет
Аудио
Идентификатор : 2
Формат : AAC
Формат/Информация : Advanced Audio Codec
Профиль формата : HE-AAC / LC
Идентификатор кодека : A_AAC
Продолжительность : 1 ч. 43 м.
Битрейт : 90,0 Кбит/сек
Каналы : 2 канала
Расположение каналов : Front: L R
Частота : 48,0 КГц / 24,0 КГц
Частота кадров : 23,438 кадра/сек (1024 spf)
Метод сжатия : С потерями
Задержка видео : 31 мс.
Размер потока : 66,3 Мбайт (9%)
Язык : Russian
Default : Да
Forced : Нет

Скриншоты

[cybertorrent.ru].t407.torrent 
Торрент: Зарегистрирован [ 2018-02-15 15:48 ] · 574E785D327276F729660826076ADFA81DE009BA

Скачать .torrent

Скачать

15 KB

Статус: проверено
Скачан: 0 раз
Размер: 746 MB
Профиль [ЛС]
Показать сообщения:    

Текущее время: 26-Май 15:32

Часовой пояс: UTC ± 0



Вы не можете начинать темы
Вы не можете отвечать на сообщения
Вы не можете редактировать свои сообщения
Вы не можете удалять свои сообщения
Вы не можете голосовать в опросах
Вы не можете прикреплять файлы к сообщениям
Вы можете скачивать файлы