Статистика раздачи
Размер:  1,1 GB   |    Зарегистрирован:  3 месяца 12 дней   |    Скачан:  0 раз

Полного источника не было: Никогда

Личеров:  3  [  0 KB/s  ]  
 
   
 
 

lopster ®

Пол:
Не указан
Стаж:
3 месяца 12 дней
Сообщений:
612

Любовь, предвестие печали...-Страна: Россия
Студия: Ленфильм
Жанр: драма
Год выпуска: 1994
Продолжительность: 01:32:07-Режиссёр: Виктор Сергеев
В ролях: Юрий Балабанов, Ирина Метлицкая, Андрей Соколов, Ольга Дроздова, Ольга Самошина, Всеволод Кузнецов, Юрий Томошевский, Галина Захурдаева, Гали Абайдулов, Светлана Гайтан, Людмила Молокова, Маргарита Бычкова, Валерий Кравченко, Елена Малиновская...-Описание: Преуспевающий художник Филипп, счастливо проживший десять лет с женой Марией, влюбляется в Анну, жену своего близкого приятеля - художника Алексея. Их дружбе пришел конец. Ещё Филипп признался во всем супруге, для которой это известие стало катастрофой. Чтобы разрешить эту ситуацию, мужчины решили сыграть в своеобразную русскую рулетку...-Релиз: -Семпл: http://sendfile.su/1369726-Качество: DVB
Формат: TS
Видео: 720x576 (4:3) @ 786x576, 25.000 fps, AVC, ~1436 Kbps, 0.138 bits/pixel
Аудио: 48.0 KHz, MPEG-1 Audio layer 2, 2 ch, 192 Kbps

MediaInfo

General
ID : 1 (0x1)
Complete name : Любовь, предвестие печали... 1994 Наше любимое кино.ts
Format : MPEG-TS
File size : 1.10 GiB
Duration : 1 h 32 min
Overall bit rate mode : Variable
Overall bit rate : 1 715 kb/s
Video
ID : 222 (0xDE)
Menu ID : 1 (0x1)
Format : AVC
Format/Info : Advanced Video Codec
Format profile : High@L3
Format settings : CABAC / 4 Ref Frames
Format settings, CABAC : Yes
Format settings, RefFrames : 4 frames
Format settings, GOP : M=4, N=28
Codec ID : 27
Duration : 1 h 32 min
Bit rate : 1 436 kb/s
Width : 720 pixels
Height : 576 pixels
Display aspect ratio : 4:3
Frame rate : 25.000 FPS
Standard : Component
Color space : YUV
Chroma subsampling : 4:2:0
Bit depth : 8 bits
Scan type : Interlaced
Scan type, store method : Separated fields
Scan order : Top Field First
Bits/(Pixel*Frame) : 0.138
Stream size : 946 MiB (84%)
Color range : Limited
Color primaries : BT.601 PAL
Transfer characteristics : BT.470 System B, BT.470 System G
Matrix coefficients : BT.470 System B, BT.470 System G
Audio
ID : 322 (0x142)
Menu ID : 1 (0x1)
Format : MPEG Audio
Format version : Version 1
Format profile : Layer 2
Codec ID : 3
Duration : 1 h 32 min
Bit rate mode : Constant
Bit rate : 192 kb/s
Channel(s) : 2 channels
Sampling rate : 48.0 kHz
Compression mode : Lossy
Stream size : 127 MiB (11%)
Language : Russian

Скриншоты

[cybertorrent.ru].t408.torrent 
Торрент: Зарегистрирован [ 2018-02-15 15:48 ] · AD1B9AEC6A53630997F11E00210711F4DA4EBD8B

Скачать .torrent

Скачать

12 KB

Статус: проверено
Скачан: 0 раз
Размер: 1,1 GB
Профиль [ЛС]
Показать сообщения:    

Текущее время: 28-Май 08:05

Часовой пояс: UTC ± 0



Вы не можете начинать темы
Вы не можете отвечать на сообщения
Вы не можете редактировать свои сообщения
Вы не можете удалять свои сообщения
Вы не можете голосовать в опросах
Вы не можете прикреплять файлы к сообщениям
Вы можете скачивать файлы