Статистика раздачи
Размер:  1,46 GB   |    Зарегистрирован:  3 месяца 9 дней   |    Скачан:  0 раз

Полного источника не было: Никогда

 
   
 
 

lopster ®

Пол:
Не указан
Стаж:
3 месяца 9 дней
Сообщений:
612

Про любовь. Только для взрослых
Студия: Кинокомпания «Магнум»
Жанр: комедия
Год выпуска: 2017
Продолжительность: 01:48:56
Субтитры: нет-Режиссер: Павел Руминов, Наталья Меркулова, Алексей Чупов, Нигина Сайфуллаева, Евгений Шелякин, Резо Гигинеишвили-В ролях: Джон Малкович, Ингеборга Дапкунайте, Тинатин Далакишвили, Фёдор Бондарчук, Виктория Исакова, Максим Матвеев, Анна Михалкова, Фёдор Лавров, Лукерья Ильяшенко, Владимир Яглыч, Равшана Куркова, Маруся Зыкова, Александр Паль, Гоша Куценко, Александра Бортич, Ясмина Омерович, Глеб Калюжный, Кирилл Каганович, Анна Котова-Дерябина, Анна Банщикова, Алиса Хазанова, Рано Кубаева, Юлия Снигирь, Евгений Цыганов-Описание: Москва, лето. Мегаполис занят своей жизнью, здесь каждый день что-то происходит. Спешащие по своим важным делам люди не забывают и о приобретении новых знаний и навыков. Для этого в Москве каждый может по своему вкусу найти курсы, лекции и тренинги на любую тему. Но нас будет интересовать только одна лекция: про любовь. Герои — это обычные люди, затерянные в большом мегаполисе, они будут сталкиваться и пересекаться друг с другом, и у каждого из них будет своя история любви.-Тип релиза: WEB-DLRip
Контейнер: AVI
Видео: 720x304 (2.37:1), 24.000 fps, XviD build 73 ~1521 kbps avg, 0.29 bit/pixel
Аудио: 48 kHz, AC3 Dolby Digital, 3/2 (L,C,R,l,r) + LFE ch, ~384 kbps-Сэмпл-

MediaInfo

Код:Format : AVI
Format/Info : Audio Video Interleave
File size : 1.46 GiB
Duration : 1 h 48 min
Overall bit rate : 1 915 kb/s
Writing application : VirtualDubMod 1.5.10.3 | www.virtualdub-fr.org || (build 2550/release)
Writing library : VirtualDubMod build 2550/release
Video
ID : 0
Format : MPEG-4 Visual
Format profile : Advanced Simple@L5
Format settings : BVOP1 / Custom Matrix
Format settings, BVOP : 1
Format settings, QPel : No
Format settings, GMC : No warppoints
Format settings, Matrix : Custom
Codec ID : XVID
Codec ID/Hint : XviD
Duration : 1 h 48 min
Bit rate : 1 521 kb/s
Width : 720 pixels
Height : 304 pixels
Display aspect ratio : 2.35:1
Frame rate : 24.000 FPS
Color space : YUV
Chroma subsampling : 4:2:0
Bit depth : 8 bits
Scan type : Progressive
Compression mode : Lossy
Bits/(Pixel*Frame) : 0.290
Stream size : 1.16 GiB (79%)
Writing library : XviD 73
Audio
ID : 1
Format : AC-3
Format/Info : Audio Coding 3
Format settings, Endianness : Big
Codec ID : 2000
Duration : 1 h 48 min
Bit rate mode : Constant
Bit rate : 384 kb/s
Channel(s) : 6 channels
Channel positions : Front: L C R, Side: L R, LFE
Sampling rate : 48.0 kHz
Frame rate : 31.250 FPS (1536 SPF)
Bit depth : 16 bits
Compression mode : Lossy
Stream size : 299 MiB (20%)
Alignment : Split accross interleaves
Interleave, duration : 42 ms (1.00 video frame)
Interleave, preload duratio : 500 ms
Service kind : Complete Main

Скриншоты

[cybertorrent.ru].t409.torrent 
Торрент: Зарегистрирован [ 2018-02-15 15:48 ] · A8BE7B775CFA24CD825A3033620FF523ED0524C5

Скачать .torrent

Скачать

15 KB

Статус: проверено
Скачан: 0 раз
Размер: 1,46 GB
Профиль [ЛС]
Показать сообщения:    

Текущее время: 25-Май 08:45

Часовой пояс: UTC ± 0



Вы не можете начинать темы
Вы не можете отвечать на сообщения
Вы не можете редактировать свои сообщения
Вы не можете удалять свои сообщения
Вы не можете голосовать в опросах
Вы не можете прикреплять файлы к сообщениям
Вы можете скачивать файлы