Статистика раздачи
Размер:  744 MB   |    Зарегистрирован:  3 месяца 6 дней   |    Скачан:  0 раз

Полного источника не было: Никогда

 
   
 
 

lopster ®

Пол:
Не указан
Стаж:
3 месяца 6 дней
Сообщений:
612

Про любовь. Только для взрослых
Студия: Кинокомпания «Магнум»
Жанр: комедия
Год выпуска: 2017
Продолжительность: 01:48:56
Субтитры: нет-Режиссер: Павел Руминов, Наталья Меркулова, Алексей Чупов, Нигина Сайфуллаева, Евгений Шелякин, Резо Гигинеишвили-В ролях: Джон Малкович, Ингеборга Дапкунайте, Тинатин Далакишвили, Фёдор Бондарчук, Виктория Исакова, Максим Матвеев, Анна Михалкова, Фёдор Лавров, Лукерья Ильяшенко, Владимир Яглыч, Равшана Куркова, Маруся Зыкова, Александр Паль, Гоша Куценко, Александра Бортич, Ясмина Омерович, Глеб Калюжный, Кирилл Каганович, Анна Котова-Дерябина, Анна Банщикова, Алиса Хазанова, Рано Кубаева, Юлия Снигирь, Евгений Цыганов-Описание: Москва, лето. Мегаполис занят своей жизнью, здесь каждый день что-то происходит. Спешащие по своим важным делам люди не забывают и о приобретении новых знаний и навыков. Для этого в Москве каждый может по своему вкусу найти курсы, лекции и тренинги на любую тему. Но нас будет интересовать только одна лекция: про любовь. Герои — это обычные люди, затерянные в большом мегаполисе, они будут сталкиваться и пересекаться друг с другом, и у каждого из них будет своя история любви.-Тип релиза: WEB-DLRip | PRO_LOVE_WEB_DL_1080p-BLUEBIRD
Контейнер: AVI
Видео: 688x288 (2.39:1), 24.000 fps, XviD build 73 ~817 kbps avg, 0.17 bit/pixel
Аудио: 48 kHz, MPEG Layer 3, 2 ch, ~128.00 kbps avg-Сэмпл-

MediaInfo

Код:Format : AVI
Format/Info : Audio Video Interleave
File size : 744 MiB
Duration : 1 h 48 min
Overall bit rate : 955 kb/s
Writing application : VirtualDubMod 1.5.10.3 | www.virtualdub-fr.org || (build 2550/release)
Writing library : VirtualDubMod build 2550/release
Video
ID : 0
Format : MPEG-4 Visual
Format profile : Advanced Simple@L5
Format settings : BVOP1 / Custom Matrix
Format settings, BVOP : 1
Format settings, QPel : No
Format settings, GMC : No warppoints
Format settings, Matrix : Custom
Codec ID : XVID
Codec ID/Hint : XviD
Duration : 1 h 48 min
Bit rate : 817 kb/s
Width : 688 pixels
Height : 288 pixels
Display aspect ratio : 2.40:1
Frame rate : 24.000 FPS
Color space : YUV
Chroma subsampling : 4:2:0
Bit depth : 8 bits
Scan type : Progressive
Compression mode : Lossy
Bits/(Pixel*Frame) : 0.172
Stream size : 637 MiB (86%)
Writing library : XviD 73
Audio
ID : 1
Format : MPEG Audio
Format version : Version 1
Format profile : Layer 3
Codec ID : 55
Codec ID/Hint : MP3
Duration : 1 h 48 min
Bit rate mode : Constant
Bit rate : 128 kb/s
Channel(s) : 2 channels
Sampling rate : 48.0 kHz
Compression mode : Lossy
Stream size : 99.7 MiB (13%)
Alignment : Aligned on interleaves
Interleave, duration : 42 ms (1.00 video frame)
Interleave, preload duratio : 504 ms
Writing library : LAME3.99r
Encoding settings : -m s -V 4 -q 2 -lowpass 17 -b 128

Скриншоты

[cybertorrent.ru].t410.torrent 
Торрент: Зарегистрирован [ 2018-02-15 15:48 ] · 2521C88879194AD00DA3435F70DF62DD3BCC5F2B

Скачать .torrent

Скачать

15 KB

Статус: проверено
Скачан: 0 раз
Размер: 744 MB
Профиль [ЛС]
Показать сообщения:    

Текущее время: 22-Май 00:11

Часовой пояс: UTC ± 0



Вы не можете начинать темы
Вы не можете отвечать на сообщения
Вы не можете редактировать свои сообщения
Вы не можете удалять свои сообщения
Вы не можете голосовать в опросах
Вы не можете прикреплять файлы к сообщениям
Вы можете скачивать файлы