Статистика раздачи
Размер:  1,46 GB   |    Зарегистрирован:  1 месяц 6 дней   |    Скачан:  0 раз

Полного источника не было: Никогда

 
   
 
 

THT ®

Пол:
Не указан
Стаж:
2 месяца 8 дней
Сообщений:
744

Темные времена / Darkest Hour
«Никогда не сдавайся»
- Год выхода: 2017
Выпущено: США, Великобритания / Working Title Films
Жанр: драма, военный, биография, история
Продолжительность: 02:04:54
Перевод: Профессиональный (полное дублирование)
Субтитры: Русские (форсированные) (внешние .srt*)-Режиссер:
Джо Райт / Joe Wright-В ролях:
Гари Олдман (Winston Churchill), Кристин Скотт Томас (Clemmie), Бен Мендельсон (King George VI), Лили Джеймс (Elizabeth Layton), Рональд Пикап (Neville Chamberlain), Стивен Диллэйн (Viscount Halifax), Николас Джонс (Sir John Simon), Сэмюэл Уэст (Sir Anthony Eden), Дэвид Скофилд (Clement Atlee), Ричард Ламсден (General Ismay)-О фильме:
История о первом и решающем шаге Уинстона Черчилля на посту премьер-министра Великобритании, получившего власть при чрезвычайных обстоятельствах. Успехи нацистской армии взбудоражили британское сообщество, но вопреки давлению и страху других политиков Черчилль отказывается идти на соглашение с Гитлером.-Релиз групп | | IMDB | КиноПоиск | Сэмпл |-Качество: BDRip [Darkest.Hour.2017.BluRay.1080p.AVC.Atmos.TrueHD7.1-CHDBits]
Формат: AVI
Видео: 704x384 (1.83:1), 23.976 fps, XviD build 67 ~1278 kbps avg, 0.20 bit/pixel
Аудио: 48 kHz, AC3 Dolby Digital, 3/2 (L,C,R,l,r) + LFE ch, ~384.00 kbps avg-

Скриншоты

-

MediaInfo

Код:Общее
Полное имя : D:\Temnye_vremena_2017_BDRip_iT_by_Dalemake.avi
Формат : AVI
Формат/Информация : Audio Video Interleave
Размер файла : 1,46 Гбайт
Продолжительность : 2 ч. 4 м.
Общий поток : 1672 Кбит/сек
Программа кодирования : VirtualDubMod 1.5.10.3 | www.virtualdub-fr.org || (build 2550/release)
Библиотека кодирования : VirtualDubMod build 2550/release
Видео
Идентификатор : 0
Формат : MPEG-4 Visual
Профиль формата : Advanced Simple@L5
Параметр BVOP формата : 1
Параметр QPel формата : Нет
Параметр GMC формата : Без точки перехода
Параметр матрицы формата : Выборочная
Идентификатор кодека : XVID
Идентификатор кодека/Подсказка : XviD
Продолжительность : 2 ч. 4 м.
Битрейт : 1279 Кбит/сек
Ширина : 704 пикселя
Высота : 384 пикселя
Соотношение сторон : 1,85:1
Частота кадров : 23,976 кадра/сек
Цветовое пространство : YUV
Субдискретизация насыщенности : 4:2:0
Битовая глубина : 8 бит
Тип развёртки : Прогрессивная
Метод сжатия : С потерями
Бит/(Пиксели*Кадры) : 0.197
Размер потока : 1,12 Гбайт (76%)
Библиотека кодирования : XviD 67
Аудио
Идентификатор : 1
Формат : AC-3
Формат/Информация : Audio Coding 3
Расширение режима : CM (complete main)
Параметр Endianness формата : Big
Идентификатор кодека : 2000
Продолжительность : 2 ч. 4 м.
Вид битрейта : Постоянный
Битрейт : 384 Кбит/сек
Каналы : 6 каналов
Расположение каналов : Front: L C R, Side: L R, LFE
Частота : 48,0 КГц
Битовая глубина : 16 бит
Метод сжатия : С потерями
Размер потока : 343 Мбайт (23%)
Выравнивание : Разделение по промежуткам
Продолжительность промежутка : 42 мс. (1,00 видеокадр)
Время предзагрузки промежутка : 500 мс.
-
[cybertorrent.ru].t41090.torrent 
Торрент: Зарегистрирован [ 2018-03-17 18:55 ] · 160EBBA8D3822C1C4C7D4A7FF68CF49BA48970B7

Скачать .torrent

Скачать

15 KB

Статус: проверено
Скачан: 0 раз
Размер: 1,46 GB
Профиль [ЛС]
Показать сообщения:    

Текущее время: 24-Апр 13:59

Часовой пояс: UTC ± 0



Вы не можете начинать темы
Вы не можете отвечать на сообщения
Вы не можете редактировать свои сообщения
Вы не можете удалять свои сообщения
Вы не можете голосовать в опросах
Вы не можете прикреплять файлы к сообщениям
Вы можете скачивать файлы